» » Skinny Puppy - Bites (1985)
uploaded.to



Information of news
26-08-2015, 15:32

Skinny Puppy - Bites (1985)

Category: Music

Skinny Puppy - Bites (1985)

Skinny Puppy - Bites (1985)
Electronic | 1cd | EAC Rip | Flac + Cue + Log | covers
Nettwerk, W2-30002 | rel: 1985 | 470Mb

There's much to like about Skinny Puppy's first album. Right away, it's clear that Nivek Ogre, cEvin Key, & producer Dave Ogilvie are surfing through a sea of influences, demonic as their own take on these influences might be. Key member R. Dwayne Goettel wouldn't be joining the b& until their next album, so his trademark demented keyboards & effects are absent, & in their place is a kind of film score minimalism.
Indeed, many of the songs are reminiscent of the more mysterious cinematic moments of Popul Vuh & Jack Nitzsche. Hints of Depeche Mode & the Human League are all over "Assimilate," unmistakable Joy Division/New Order rhythm motifs crop up on "Dead Lines" & "Icebreaker," & fragmented & flanged Cabaret Voltaire experimentation is everywhere. But the b&'s sinister signature underbelly is already fully intact. Splattering sound effects, gurling gushing synths, piercing keyboards, & loads of spooky samples from The Legend of Hell House paint the songs in the traditional industrial horror fashion for which the b& is known. "The Choke" is perhaps most indicative of the b&'s later sound, with its creepy samples from Roman Polanski's "The Tenant" (a source the b& would return to on VIVISect VI) & Ogre's gruff vocals mingling under an abrasive chug of machine-gun guitar dynamics. "Social Deception," another st&out, is an artsy collage that sees the b& twiddling with distorted electronics. Wicked, deviant voices & a twitchy electro pulse make for a frightening experience. Most surprising about this early peek into the b&'s bag of tricks is how delicate & pristine they sound without the more elaborate layers of samples & effects that would become their bread & butter. Bites is a fascinating look at Skinny Puppy in embryonic form, full of beautiful keyboard sounds & brimming with youthful experimentation. ~Allmusic

Track listing
01. Assimilate (6:57)
02. Blood on the Wall (2:58)
03. Dead Lines (6:14)
04. Church (3:16)
05. Icebreaker (3:16)
06. Tomorrow (4:52)
07. Dead Doll (2:28)
08. Film (2:19)
09. Love (1:52)
10. The Choke (6:29)
11. Social Deception (2:58)
12. Christianity (1:33)
13. Basement (3:26)
14. Last Call (5:55)
15. Falling (4:21)
16. The Centre Bullet (9:43)
17. Untitled (4:19)
~ (72:54)

Personnel
- Nivek Ogre - vocals, guitars, synthesizers, metallic percussions, treatments & objects
- cEvin Key - bass guitars, guitars, synthesizers, sequencers, tapes, sampler, treatments, percussions, drums
- Wilhelm Schroeder - bass synth on "Icebreaker" & "The Choke"
- Tom Ellard - production, mixing, tapes, treatments, & digital sampling on "Assimilate"
- D. Pleven - bass guitar destruction on "Blood on the Wall"

Exact Audio Copy V1.0 beta 1 from 15. November 2010

EAC extraction logfile from 12. April 2011, 10:55

Skinny Puppy / Bites

Used drive : PLEXTOR CD-R PX-240A Adapter: 1 ID: 1

Read mode : Secure
Utilize accurate stream : Yes
Defeat audio cache : Yes
Make use of C2 pointers : No

Read offset correction : 6
Overread into Lead-In & Lead-Out : No
Fill up missing offset samples with silence : Yes
Delete leading & trailing silent blocks : No
Null samples used in CRC calculations : Yes
Used interface : Installed external ASPI interface

Used output format : Internal WAV Routines
Sample format : 44.100 Hz; 16 Bit; Stereo

TOC of the extracted CD

Track | Start | Length | Start sector | End sector
---------------------------------------------------------
1 | 0:00.00 | 6:56.65 | 0 | 31264
2 | 6:56.65 | 2:58.00 | 31265 | 44614
3 | 9:54.65 | 6:14.00 | 44615 | 72664
4 | 16:08.65 | 3:16.00 | 72665 | 87364
5 | 19:24.65 | 3:16.00 | 87365 | 102064
6 | 22:40.65 | 4:52.17 | 102065 | 123981
7 | 27:33.07 | 2:28.25 | 123982 | 135106
8 | 30:01.32 | 2:18.55 | 135107 | 145511
9 | 32:20.12 | 1:51.55 | 145512 | 153891
10 | 34:11.67 | 6:28.53 | 153892 | 183044
11 | 40:40.45 | 2:57.57 | 183045 | 196376
12 | 43:38.27 | 1:32.43 | 196377 | 203319
13 | 45:10.70 | 3:25.70 | 203320 | 218764
14 | 48:36.65 | 5:54.40 | 218765 | 245354
15 | 54:31.30 | 4:21.30 | 245355 | 264959
16 | 58:52.60 | 9:42.70 | 264960 | 308679
17 | 68:35.55 | 4:18.45 | 308680 | 328074

Range status & errors

Selected range

Filename Z:\data\mp3\Seeding Archive\Skinny Puppy\1985-Bites\bites.wav

Peak level 91.5 %
Extraction speed 0.5 X
Range quality 100.0 %
Test CRC 066E58BE
Copy CRC 066E58BE
Copy OK

No errors occurred


AccurateRip summary

Track 1 not present in database
Track 2 not present in database
Track 3 not present in database
Track 4 not present in database
Track 5 not present in database
Track 6 not present in database
Track 7 not present in database
Track 8 not present in database
Track 9 not present in database
Track 10 not present in database
Track 11 not present in database
Track 12 not present in database
Track 13 not present in database
Track 14 not present in database
Track 15 not present in database
Track 16 not present in database
Track 17 not present in database

None of the tracks are present in the AccurateRip database

End of status report

[CUETools log; Date: 2015.08.24. 21:08:20; Version: 2.1.5]
[CTDB TOCID: PeqYSyUb3nHU31MxF.lZulGDmaA-] found.
Track | CTDB Status
1 | (6/6) Accurately ripped
2 | (6/6) Accurately ripped
3 | (6/6) Accurately ripped
4 | (5/6) Accurately ripped, or (1/6) differs in 1308 samples @02:19:23-02:19:24
5 | (6/6) Accurately ripped
6 | (6/6) Accurately ripped
7 | (6/6) Accurately ripped
8 | (6/6) Accurately ripped
9 | (6/6) Accurately ripped
10 | (6/6) Accurately ripped
11 | (6/6) Accurately ripped
12 | (6/6) Accurately ripped
13 | (6/6) Accurately ripped
14 | (6/6) Accurately ripped
15 | (5/6) Accurately ripped
16 | (6/6) Accurately ripped
17 | (6/6) Accurately ripped
[AccurateRip ID: 002b6975-021d6989-e5111611] found.
Track [ CRC | V2 ] Status
01 [5f041b0c|cd9e6bdd] (0+5/7) Accurately ripped
02 [04e7a238|aa06f6d7] (0+4/6) Accurately ripped
03 [f5f8870c|e8f04ed1] (0+4/6) Accurately ripped
04 1cf96ed|18304c70 (0+5/7) Accurately ripped
05 [f815f33f|01b08969] (0+6/8) Accurately ripped
06 [f47780b7|9fdd7bcb] (0+6/8) Accurately ripped
07 [95b83385|a2d8eac8] (0+6/8) Accurately ripped
08 [97e00998|84f21538] (0+6/8) Accurately ripped
09 [342cfb55|ccc6e5c1] (0+6/8) Accurately ripped
10 [93a93093|83f49c3e] (0+6/8) Accurately ripped
11 [29001f22|531ac520] (0+6/8) Accurately ripped
12 [4d4bae3d|76e65221] (0+6/8) Accurately ripped
13 [9f53572d|d2148f91] (0+6/8) Accurately ripped
14 [86ca80d2|921bb87b] (0+6/8) Accurately ripped
15 [3b6fef97|05759760] (0+6/8) Accurately ripped
16 [42b39855|2104176a] (0+6/8) Accurately ripped
17 [94cea9e6|5dffcbcd] (0+6/8) Accurately ripped
Offsetted by -18:
01 [377e681b] (0/7) No match (V2 was not tested)
02 [1c3b56c1] (0/6) No match (V2 was not tested)
03 [92ae9b26] (0/6) No match (V2 was not tested)
04 [39f2ac2e] (0/7) No match (V2 was not tested)
05 [6003b9cb] (0/8) No match (V2 was not tested)
06 7ef1b93 (0/8) No match (V2 was not tested)
07 [05638b9d] (0/8) No match (V2 was not tested)
08 [9bd00d52] (0/8) No match (V2 was not tested)
09 [dffe659b] (0/8) No match (V2 was not tested)
10 [f58b1207] (0/8) No match (V2 was not tested)
11 [c937abce] (0/8) No match (V2 was not tested)
12 1762e01 (0/8) No match (V2 was not tested)
13 [063af47d] (0/8) No match (V2 was not tested)
14 [75e4428b] (0/8) No match (V2 was not tested)
15 [ce7eed91] (0/8) No match (V2 was not tested)
16 [ee1d758f] (0/8) No match (V2 was not tested)
17 [6e52d9ee] (0/8) No match (V2 was not tested)

Track Peak [ CRC32 ] [W/O NULL] [ LOG ]
-- 91,5 [066E58BE] [AFDD768E] CRC32
01 91,5 [D5152299] [A51C8466]
02 81,4 [37BCFABA] [7815B9F6]
03 80,9 [E3717A63] [56C892EA]
04 89,5 [8C99F2EB] [538277F5]
05 85,7 [C5234698] [3D1BA052]
06 91,5 [0DFE2F3E] [8D9112FA]
07 77,3 [16DABFE5] [ABF5A585]
08 79,5 [C055163C] [0B845DDA]
09 57,2 [0916F3B4] [DC0E6DA3]
10 80,6 [1AD7A291] [6FA9114B]
11 87,9 [730BEEC4] [7A64543A]
12 86,1 [2768378F] [68C702D8]
13 71,7 C1CC126 [8388E2F9]
14 86,8 [DBD85DED] [368DE516]
15 65,0 [898ED8CB] [D4A14C6F]
16 69,7 [099973FA] [D38AC9FC]
17 45,1 [42750B1D] [53939F3B]

password: asd
Download link:



Links are Interchangeable - No Password - Single Extraction

uploaded


Rapidgator.net

Site BBcode/HTML Code:
Dear visitor, you went to the site as unregistered user.
We recommend you Sign up or Login to website under your name.
Information
Would you like to leave your comment? Please Login to your account to leave comments. Don't have an account? You can create a free account now.

Tag Cloud

archive of news

^
 
free html hit counter