» » Iron Maiden - Sonisphere 2014 [HDTV, 1080i]
uploaded.to



Information of news
27-08-2015, 00:54

Iron Maiden - Sonisphere 2014 [HDTV, 1080i]

Category: Music

Iron Maiden - Sonisphere 2014 [HDTV, 1080i]

Iron Maiden - Sonisphere 2014
TS, MPEG4 Video (H264) 1920x1080 29.97fps | Dolby AC3, 2 ch, 226kbps
Heavy Metal | 00:20:52 | ~ 2.22 Gb

~ Iron Maiden performing on July 05, 2014 at Sonisphere Festival, UK ~


Iron Maiden - Sonisphere 2014:
Tracklist:

Aces High
The Trooper
Revelations
Iron Maiden

General
ID : 1 (0x1)
Complete name : G:\UP\Mix\Iron Maiden - Sonisphere 2014\Iron Maiden - Sonisphere 2014.ts
Format : MPEG-TS
File size : 2.11 GiB
Duration : 20mn 51s
Overall bit rate mode : Variable
Overall bit rate : 14.5 Mbps
Maximum Overall bit rate : 35.5 Mbps

Video
ID : 4113 (0x1011)
Menu ID : 1 (0x1)
Format : AVC
Format/Info : Advanced Video Codec
Format profile : [email protected]
Format settings, CABAC : Yes
Format settings, ReFrames : 2 frames
Format settings, GOP : M=3, N=15
Codec ID : 27
Duration : 20mn 51s
Bit rate mode : Variable
Bit rate : 13.5 Mbps
Maximum bit rate : 27.0 Mbps
Width : 1 920 pixels
Height : 1 080 pixels
Display aspect ratio : 16:9
Frame rate : 29.970 fps
Color space : YUV
Chroma subsampling : 4:2:0
Bit depth : 8 bits
Scan type : Interlaced
Scan order : Top Field First
Bits/(Pixel*Frame) : 0.218
Stream size : 1.97 GiB (94%)
Color primaries : BT.709
Transfer characteristics : BT.709
Matrix coefficients : BT.709

Audio
ID : 4352 (0x1100)
Menu ID : 1 (0x1)
Format : AAC
Format/Info : Advanced Audio Codec
Format version : Version 4
Format profile : LC
Muxing mode : ADTS
Codec ID : 15
Duration : 20mn 51s
Bit rate mode : Variable
Bit rate : 220 Kbps
Channel(s) : 2 channels
Channel positions : Front: L R
Sampling rate : 48.0 KHz
Compression mode : Lossy
Stream size : 32.8 MiB (2%)
Download link:



Links are Interchangeable - No Password - Single Extraction

uploaded


Rapidgator.net

Site BBcode/HTML Code:
Dear visitor, you went to the site as unregistered user.
We recommend you Sign up or Login to website under your name.
Information
Would you like to leave your comment? Please Login to your account to leave comments. Don't have an account? You can create a free account now.

Tag Cloud

archive of news

^
 
free html hit counter