» » Queensrÿche - Wacken 2015 [HDTV, 720p]
uploaded.to



Information of news
27-08-2015, 11:18

Queensrÿche - Wacken 2015 [HDTV, 720p]

Category: Music

Queensrÿche - Wacken 2015 [HDTV, 720p]

Queensrÿche - Wacken 2015
TS, Mpeg4 AVC, 1280x720, 13500 kbps, 50 fps | Dolby AC3, 2 ch, 448 kbps
Progressive Metal / Heavy Metal | 00:57:58 | ~ 6.54 Gb

~ Queensrÿche performing on July 31, 2015 at Wacken Open Air festival in Wacken, Germany ~


Tracklist:

Anarchy-X
Nightrider
Breaking the Silence
The Whisper
En Force
Warning
NM 156
Arrow of Time
Eyes of a Stranger
Queen of the Reich
Take Hold of the Flame

General
ID : 1 (0x1)
Complete name : G:\UP\Mix\Queensryche - Wacken 2015\Queensryche - Wacken 2015.ts
Format : MPEG-TS
File size : 6.20 GiB
Duration : 57mn 58s
Overall bit rate mode : Variable
Overall bit rate : 15.3 Mbps

Video
ID : 6410 (0x190A)
Menu ID : 11140 (0x2B84)
Format : AVC
Format/Info : Advanced Video Codec
Format profile : [email protected]
Format settings, CABAC : Yes
Format settings, ReFrames : 6 frames
Codec ID : 27
Duration : 57mn 57s
Bit rate : 13.5 Mbps
Width : 1 280 pixels
Height : 720 pixels
Display aspect ratio : 16:9
Frame rate : 50.000 fps
Color space : YUV
Chroma subsampling : 4:2:0
Bit depth : 8 bits
Scan type : Progressive
Bits/(Pixel*Frame) : 0.292
Stream size : 5.45 GiB (88%)
Color primaries : BT.709
Transfer characteristics : BT.709
Matrix coefficients : BT.709

Audio #1
ID : 6420 (0x1914)
Menu ID : 11140 (0x2B84)
Format : AC-3
Format/Info : Audio Coding 3
Mode extension : CM (complete main)
Format settings, Endianness : Big
Codec ID : 6
Duration : 57mn 57s
Bit rate mode : Constant
Bit rate : 448 Kbps
Channel(s) : 2 channels
Channel positions : Front: L R
Sampling rate : 48.0 KHz
Bit depth : 16 bits
Compression mode : Lossy
Stream size : 186 MiB (3%)
Language : German

Audio #2
ID : 6421 (0x1915)
Menu ID : 11140 (0x2B84)
Format : MPEG Audio
Format version : Version 1
Format profile : Layer 2
Codec ID : 3
Duration : 57mn 57s
Bit rate mode : Constant
Bit rate : 256 Kbps
Channel(s) : 2 channels
Sampling rate : 48.0 KHz
Compression mode : Lossy
Stream size : 106 MiB (2%)
Language : German

Audio #3
ID : 6422 (0x1916)
Menu ID : 11140 (0x2B84)
Format : MPEG Audio
Format version : Version 1
Format profile : Layer 2
Codec ID : 3
Duration : 57mn 57s
Bit rate mode : Constant
Bit rate : 192 Kbps
Channel(s) : 2 channels
Sampling rate : 48.0 KHz
Compression mode : Lossy
Stream size : 79.6 MiB (1%)

Audio #4
ID : 6423 (0x1917)
Menu ID : 11140 (0x2B84)
Format : MPEG Audio
Format version : Version 1
Format profile : Layer 2
Codec ID : 3
Duration : 57mn 57s
Bit rate mode : Constant
Bit rate : 192 Kbps
Channel(s) : 2 channels
Sampling rate : 48.0 KHz
Compression mode : Lossy
Stream size : 79.6 MiB (1%)
Language : Multiple languages

Text
ID : 6424 (0x1918)-100
Menu ID : 11140 (0x2B84)
Format : Teletext
Language : German

Menu
ID : 6400 (0x1900)
Menu ID : 11140 (0x2B84)
Duration : 57mn 58s
List : 6410 (0x190A) (AVC) / 6420 (0x1914) (AC-3, German) / 6421 (0x1915) (MPEG Audio, German) / 6422 (0x1916) (MPEG Audio) / 6423 (0x1917) (MPEG Audio, Multiple languages) / 6424 (0x1918) ()
Language : / German / German / / Multiple languages

Queensrÿche - Wacken 2015 [HDTV, 720p]

Queensrÿche - Wacken 2015 [HDTV, 720p]

Queensrÿche - Wacken 2015 [HDTV, 720p]

Queensrÿche - Wacken 2015 [HDTV, 720p]

Queensrÿche - Wacken 2015 [HDTV, 720p]

Queensrÿche - Wacken 2015 [HDTV, 720p]

Download link:
Rapidgator:
kdvkc.Queensrche..Wacken.2015.HDTV.720p.part01.rar.html
kdvkc.Queensrche..Wacken.2015.HDTV.720p.part02.rar.html
kdvkc.Queensrche..Wacken.2015.HDTV.720p.part03.rar.html
kdvkc.Queensrche..Wacken.2015.HDTV.720p.part04.rar.html
kdvkc.Queensrche..Wacken.2015.HDTV.720p.part05.rar.html
kdvkc.Queensrche..Wacken.2015.HDTV.720p.part06.rar.html
kdvkc.Queensrche..Wacken.2015.HDTV.720p.part07.rar.html
kdvkc.Queensrche..Wacken.2015.HDTV.720p.part08.rar.html
kdvkc.Queensrche..Wacken.2015.HDTV.720p.part09.rar.html
kdvkc.Queensrche..Wacken.2015.HDTV.720p.part10.rar.html

Nitroflare:
kdvkc.Queensrche..Wacken.2015.HDTV.720p.part01.rar
kdvkc.Queensrche..Wacken.2015.HDTV.720p.part02.rar
kdvkc.Queensrche..Wacken.2015.HDTV.720p.part03.rar
kdvkc.Queensrche..Wacken.2015.HDTV.720p.part04.rar
kdvkc.Queensrche..Wacken.2015.HDTV.720p.part05.rar
kdvkc.Queensrche..Wacken.2015.HDTV.720p.part06.rar
kdvkc.Queensrche..Wacken.2015.HDTV.720p.part07.rar
kdvkc.Queensrche..Wacken.2015.HDTV.720p.part08.rar
kdvkc.Queensrche..Wacken.2015.HDTV.720p.part09.rar
kdvkc.Queensrche..Wacken.2015.HDTV.720p.part10.rar

Uploadable.ch:
kdvkc.Queensrche..Wacken.2015.HDTV.720p.part01.rar
kdvkc.Queensrche..Wacken.2015.HDTV.720p.part02.rar
kdvkc.Queensrche..Wacken.2015.HDTV.720p.part03.rar
kdvkc.Queensrche..Wacken.2015.HDTV.720p.part04.rar
kdvkc.Queensrche..Wacken.2015.HDTV.720p.part05.rar
kdvkc.Queensrche..Wacken.2015.HDTV.720p.part06.rar
kdvkc.Queensrche..Wacken.2015.HDTV.720p.part07.rar
kdvkc.Queensrche..Wacken.2015.HDTV.720p.part08.rar
kdvkc.Queensrche..Wacken.2015.HDTV.720p.part09.rar
kdvkc.Queensrche..Wacken.2015.HDTV.720p.part10.rar
Links are Interchangeable - Single Extraction - Premium is support resumable

uploaded


Rapidgator.net

Site BBcode/HTML Code:
Dear visitor, you went to the site as unregistered user.
We recommend you Sign up or Login to website under your name.
Information
Would you like to leave your comment? Please Login to your account to leave comments. Don't have an account? You can create a free account now.

Tag Cloud

archive of news

^
 
free html hit counter