» » » Jamtrackcentral - Claudio Pietronik
uploaded.to



Information of news
29-08-2015, 12:40

Jamtrackcentral - Claudio Pietronik

Category: Tutorials / Other

Jamtrackcentral - Claudio Pietronik

Jamtrackcentral - Claudio Pietronik
WEBRip | English | MP4 + MP3 jam tracks + PDF tabs | 1280 x 720 | AVC ~4212 Kbps | 25 fps
AAC | 192 Kbps | 48.0 KHz | 2 channels | ~4 hours | 2.04 GB
Genre: eLearning Video / Guitar lesson

Claudio is quickly becoming one of the most prolific & expressive players on the guitar scene right now & looking through these incredible licks it really isn't hard to see why! Claudio has a real talent for playing the most perfect notes at the right time as you will find out for yourself as you're learning & mastering these 60 licks!
We've combined 3 of Claudio's licks packages for great extra value for you; you'll get a bundle of fantastic licks, & still have a nice bundle left in your wallet afterwards!

Emotion, energy & sublime melodic guitar playing; this is a track that you will want to learn every single note of! Featuring beautiful sweet guitar lines, epic shred & intense bends all played on Claudio's signature GNG guitar. What a debut song from an inspirational & talented guitar player. Download this track right now to hear for yourself why Claudio is quickly becoming one of the most melodic & well rounded guitarists on the scene right now! Watch out world; Claudio is coming for you!

General
Complete name : cp_20suspensedrivenballadlicks_lick05_slow.mp4
Format : MPEG-4
Format profile : Base Media / Version 2
Codec ID : mp42
File size : 25.5 MiB
Duration : 48s 520ms
Overall bit rate mode : Variable
Overall bit rate : 4 416 Kbps
Encoded date : UTC 2015-05-18 19:59:29
Tagged date : UTC 2015-05-18 19:59:29
©TIM : 00:00:00:00
©TSC : 25
©TSZ : 1

Video
ID : 1
Format : AVC
Format/Info : Advanced Video Codec
Format profile : [email protected]
Format settings, CABAC : Yes
Format settings, ReFrames : 3 frames
Codec ID : avc1
Codec ID/Info : Advanced Video Coding
Duration : 48s 520ms
Bit rate : 4 212 Kbps
Width : 1 280 pixels
Height : 720 pixels
Display aspect ratio : 16:9
Frame rate mode : Constant
Frame rate : 25.000 fps
St&ard : NTSC
Color space : YUV
Chroma subsampling : 4:2:0
Bit depth : 8 bits
Scan type : Progressive
Bits/(Pixel*Frame) : 0.183
Stream size : 24.4 MiB (95%)
Language : English
Encoded date : UTC 2015-05-18 19:59:29
Tagged date : UTC 2015-05-18 19:59:29

Audio
ID : 2
Format : AAC
Format/Info : Advanced Audio Codec
Format profile : LC
Codec ID : 40
Duration : 48s 520ms
Source duration : 48s 555ms
Bit rate mode : Variable
Bit rate : 192 Kbps
Maximum bit rate : 272 Kbps
Channel(s) : 2 channels
Channel positions : Front: L R
Sampling rate : 48.0 KHz
Compression mode : Lossy
Stream size : 1.10 MiB (4%)
Source stream size : 1.10 MiB
Language : English
Encoded date : UTC 2015-05-18 19:59:29
Tagged date : UTC 2015-05-18 19:59:29

Screenshots

Jamtrackcentral - Claudio Pietronik

Jamtrackcentral - Claudio Pietronik

Jamtrackcentral - Claudio Pietronik


Download link:
Links are Interchangeable - Single Extraction - Premium is support resumable

uploaded


Rapidgator.net

Site BBcode/HTML Code:
Dear visitor, you went to the site as unregistered user.
We recommend you Sign up or Login to website under your name.
Information
Would you like to leave your comment? Please Login to your account to leave comments. Don't have an account? You can create a free account now.

Tag Cloud

archive of news

^
 
free html hit counter