» » Dan Erlewine's: Maintenance & Setup for Steel-string Acoustic Guitars - Vol. 1
uploaded.to



Information of news
3-09-2015, 13:34

Dan Erlewine's: Maintenance & Setup for Steel-string Acoustic Guitars - Vol. 1

Category: Tutorials

Dan Erlewine's: Maintenance & Setup for Steel-string Acoustic Guitars - Vol. 1

Dan Erlewine's: Maintenance & Setup for Steel-string Acoustic Guitars - Vol. 1
DVD5 in ISO-image | English | VIDEO_TS | 720 x 480 | MPEG2 ~4004 Kbps | 29.970 fps
AC-3 | 224 Kbps | 48.0 KHz | 2 channels | ~2 hours | 3.79 GB
Genre: eLearning Video / Guitar lesson

Your guide to evaluating the condition of acoustic and resophonic guitars, and making them play their best. If your repair experience is mostly with electric guitars, these DVDs will show you how to apply your skills to flattops and resophonics. If you specialize in acoustics, this information is essential. Each DVD is 2 hours. Sold individually or SAVE when you buy the set of both DVDs.
"If acoustic setup makes you nervous, this DVD will give you the information and confidence you need." -- Dan

The focus of this DVD
Evaluating the condition of your acoustic or resophonic guitar, and getting the most out of it.

Information covered
Flattop Acoustic Guitars:
Installing strings correctly on the inside of your guitar: understanding the relationship between the bridge reinforcing plate's ("bridge pad") condition and good tone, playability and a guitar's longevity
What to do about bridge and bridge pad problems
Structural integrity checklist. Prevention is the best cure, so learn what to look for inside your guitar
The most common problems with vintage flattops
Optimum action setups for different playing styles
Good nut and saddle height
When does a neck need to be re-set?
When does a bridge need to be replaced?
Pro setups
Understand the setups of these professional players, and hear the results
Roy Bookbinder shows why he likes his Recording King and Washburn De-Luxe (both made by Gibson in the 30s and 40s)
JD Hutchison shows how he gets his '52 Martin D-28 to keep up with "the boys the Telecasters and steel guitars"
Paul Geremia details the setups of both his Stella 12-String and Gibson J-35 - Two different setups for two different playing styles
Jorma Kaukonen details his road guitar, a Gibson acoustic electric as well as his "pure" (unamplified) studio guitar - a Gibson Advanced Jumbo

General
Complete name : VTS_01_3.VOB
Format : MPEG-PS
File size : 1 023 MiB
Duration : 33mn 2s
Overall bit rate : 4 326 Kbps

Video
ID : 224 (0xE0)
Format : MPEG Video
Format version : Version 2
Format profile : [email protected]
Format settings, BVOP : Yes
Format settings, Matrix : Custom
Format settings, GOP : M=3, N=15
Duration : 33mn 2s
Bit rate : 4 004 Kbps
Width : 720 pixels
Height : 480 pixels
Display aspect ratio : 4:3
Frame rate : 29.970 fps
Standard : NTSC
Color space : YUV
Chroma subsampling : 4:2:0
Bit depth : 8 bits
Scan type : Interlaced
Scan order : Top Field First
Compression mode : Lossy
Bits/(Pixel*Frame) : 0.387
Stream size : 949 MiB (93%)

Audio
ID : 189 (0xBD)-128 (0x80)
Format : AC-3
Format/Info : Audio Coding 3
Mode extension : CM (complete main)
Muxing mode : DVD-Video
Duration : 33mn 2s
Bit rate mode : Constant
Bit rate : 224 Kbps
Channel(s) : 2 channels
Channel positions : Front: L R
Sampling rate : 48.0 KHz
Bit depth : 16 bits
Compression mode : Lossy
Delay relative to video : -396ms
Stream size : 53.0 MiB (5%)

Menu

Screenshots

Dan Erlewine's: Maintenance & Setup for Steel-string Acoustic Guitars - Vol. 1

Dan Erlewine's: Maintenance & Setup for Steel-string Acoustic Guitars - Vol. 1

Dan Erlewine's: Maintenance & Setup for Steel-string Acoustic Guitars - Vol. 1

Dan Erlewine's: Maintenance & Setup for Steel-string Acoustic Guitars - Vol. 1

Dan Erlewine's: Maintenance & Setup for Steel-string Acoustic Guitars - Vol. 1

Dan Erlewine's: Maintenance & Setup for Steel-string Acoustic Guitars - Vol. 1


Download link:
Links are Interchangeable - Single Extraction - Premium is support resumable

uploaded


Rapidgator.net

Site BBcode/HTML Code:
Dear visitor, you went to the site as unregistered user.
We recommend you Sign up or Login to website under your name.
Information
Would you like to leave your comment? Please Login to your account to leave comments. Don't have an account? You can create a free account now.

Tag Cloud

archive of news

^
 
free html hit counter