» » Gaga For Raga - Fareed Haque (2015)
uploaded.to



Information of news
  • Author: BaDshaH
  • Date: 7-09-2015, 10:04
7-09-2015, 10:04

Gaga For Raga - Fareed Haque (2015)

Category: Tutorials




"In classical Indian music, ragas are the melodic foundations for improvisation and composition. Similar to scales in Western music, ragas consist of a specific series of notes (in some cases differing in ascent and descent) but they also call for characteristic musical motifs and embellishments."


About Fareed Haque's Gaga for Raga
Spice up your improv with eastern harmonies and techniques

The word 'raga' translates to 'color' or 'passion' and the performer sets out to create a mood or atmosphere (rasa) that is unique to the raga in use. Traditionally, ragas are associated with specific times of day and seasons of the year, and there are hundreds in present use today. John McLaughlin, Derek Trucks, George Harrison and John Fahey are just a few of the guitarists whose music has been influenced by Indian music and ragas.

Why will you go Gaga for Raga? Fareed Hague and Indrajit Banerjee have cooked up one of the most unique learning adventures that we've ever produced here at TrueFire, and you'll be fascinated with their curriculum whatever your level or preferred style of music. You will also graduate their course with a palette of new harmonic and expressive approaches that you can spice your blues, jazz and rock solos with.


- Dickie N., TrueFire Student[/i]


"What You Get
Courses are interactive video software available on the TrueFire app for Windows or Mac computers and iPads. Features include multi-angle video lessons, slo-mo, looping, automatic updating, full screen, plus:

Charts (19 .PDF Files)
Jam Tracks (20 .MP3 Files)
Tabs (9 .GP5 or .PTB files)
01 Hr, 46 Min of Video (.MP4)"




General
Complete name : fhgfr-008.mp4
Format
: MPEG-4
Format profile : Base Media
Codec ID
: isom
File size
: 31.9 MiB
Duration
: 4mn 3s
Overall bit rate : 1 101 Kbps
Writing application

: Lavf55.16.102

Video
ID : 1
Format
: AVC
Format/Info
: Advanced Video Codec
Format settings, CABAC : No
Format settings, ReFrames : 5 frames
Format settings, GOP : M=1, N=24
Codec ID
: avc1
Codec ID/Info : Advanced Video Coding
Duration
: 4mn 3s
Bit rate
: 966 Kbps
Width
: 864 pixels
Height
: 486 pixels
Display aspect ratio : 16:9
Frame rate mode : Constant
Frame rate
: 29.970 fps
Standard
: NTSC
Color space
: YUV
Chroma subsampling

: 4:2:0
Bit depth
: 8 bits
Scan type
: Progressive
Bits/(Pixel*Frame)

: 0.077
Stream size
: 28.0 MiB (88%)
Language
: English

Audio
ID : 2
Format
: AAC
Format/Info
: Advanced Audio Codec
Format profile : LC
Codec ID
: 40
Duration
: 4mn 3s
Bit rate mode : Constant
Bit rate
: 128 Kbps
Channel(s)
: 2 channels
Channel positions: Front: L R
Sampling rate : 44.1 KHz
Compression mode : Lossy
Stream size
: 3.71 MiB (12%)
Language
: English


Screenshots

Gaga For Raga - Fareed Haque (2015)

Gaga For Raga - Fareed Haque (2015)

Gaga For Raga - Fareed Haque (2015)

Gaga For Raga - Fareed Haque (2015)



I recommends Buy premimum account for High speed+parallel downloads!

Rapidgator


Nitroflare


uploaded


Rapidgator.net

Site BBcode/HTML Code:
Dear visitor, you went to the site as unregistered user.
We recommend you Sign up or Login to website under your name.
Information
Would you like to leave your comment? Please Login to your account to leave comments. Don't have an account? You can create a free account now.

Tag Cloud

archive of news

^
 
free html hit counter