» » Jam Track Central Rabea Massaad - 20 Funked Up Rock Licks (2015)
uploaded.to



Information of news
  • Author: BaDshaH
  • Date: 8-09-2015, 17:19
8-09-2015, 17:19

Jam Track Central Rabea Massaad - 20 Funked Up Rock Licks (2015)

Category: Tutorials





"Introducing new JTC artist Rabea Massaad to the family! And what a way to join us...his debut 20 licks series is a killer product! For starters these licks are very accessible, full of technique and ideas that you can certianly use in your own playing. And secondly, it's a wicked backing track, perfect for jamming over!"





Rabea Says:
'I wanted to explore as much harmonic variation as possible within a single key. I've used rhythmic phrasing (something I believe is crucial to becoming a great player) and some odd (but correct) notes. These licks will allow you to take a different perspective on some familiar shapes and sounds, hopefully giving you a stronger sense of rhythm and a unique harmonic angle to your playing'
Each lick comes in full speed audio and video, plus a slower speed so you can analyse every little detail! Also included is the backing track at different BPM's, giving you the backdrop to work on each lick at your own pace, as well as creating your own licks. As ever, accurate JTC TAB/Notation is included for each lick, plus Rabea has written up some notes for each lick to help you further.
Throughout each lick you will learn a load of ideas and techniques, including: hybrid and alternate picking, hammer-ons and pull-offs, two handed tapping, melodic bends and palm muting......and that is just scratching the surface!
So, if you are serious about guitar then this is the perfect package to get stuck into learning.

General
Complete name : Lick8_vid_slow.mp4
Format
: MPEG-4
Format profile : Base Media / Version 2
Codec ID
: mp42
File size
: 17.0 MiB
Duration
: 28s 600ms
Overall bit rate mode : Variable
Overall bit rate : 4 995 Kbps
Encoded date : UTC 2014-07-23 11:28:46
Tagged date
: UTC 2014-07-23 11:28:47
©TIM
: 00:00:00:00
©TSC
: 25
©TSZ
: 1

Video
ID : 1
Format
: AVC
Format/Info
: Advanced Video Codec
Format settings, CABAC : Yes
Format settings, ReFrames : 3 frames
Codec ID
: avc1
Codec ID/Info : Advanced Video Coding
Duration
: 28s 600ms
Bit rate mode : Variable
Bit rate
: 4 670 Kbps
Maximum bit rate : 5 000 Kbps
Width
: 1 280 pixels
Height
: 720 pixels
Display aspect ratio : 16:9
Frame rate mode : Constant
Frame rate
: 25.000 fps
Standard
: PAL
Color space
: YUV
Chroma subsampling

: 4:2:0
Bit depth
: 8 bits
Scan type
: Progressive
Bits/(Pixel*Frame)

: 0.203
Stream size
: 15.9 MiB (93%)
Language
: English
Encoded date : UTC 2014-07-23 11:28:46
Tagged date
: UTC 2014-07-23 11:28:46
Color primaries : BT.709-5, BT.1361, IEC 61966-2-4, SMPTE RP177
Transfer characteristics : BT.709-5, BT.1361
Matrix coefficients

: BT.709-5, BT.1361, IEC 61966-2-4 709, SMPTE RP177

Audio
ID : 2
Format
: AAC
Format/Info
: Advanced Audio Codec
Format profile : LC
Codec ID
: 40
Duration
: 28s 600ms
Source duration : 28s 651ms
Bit rate mode : Variable
Bit rate
: 317 Kbps
Maximum bit rate : 445 Kbps
Channel(s)
: 2 channels
Channel positions: Front: L R
Sampling rate : 48.0 KHz
Compression mode : Lossy
Stream size
: 1.08 MiB (6%)
Source stream size

: 1.08 MiB
Language
: English
Encoded date : UTC 2014-07-23 11:28:46
Tagged date
: UTC 2014-07-23 11:28:46


Screenshots

Jam Track Central  Rabea Massaad - 20 Funked Up Rock Licks (2015)

Jam Track Central  Rabea Massaad - 20 Funked Up Rock Licks (2015)

Jam Track Central  Rabea Massaad - 20 Funked Up Rock Licks (2015)



I recommends Buy premimum account for High speed+parallel downloads!

Rapidgator


Nitroflare


uploaded


Rapidgator.net

Site BBcode/HTML Code:
Dear visitor, you went to the site as unregistered user.
We recommend you Sign up or Login to website under your name.
Information
Would you like to leave your comment? Please Login to your account to leave comments. Don't have an account? You can create a free account now.

Tag Cloud

archive of news

^
 
free html hit counter