» » If - Waterfall (1972)
uploaded.to



Information of news
10-09-2015, 07:36

If - Waterfall (1972)

Category: Music

If - Waterfall (1972)

If - Waterfall (1972)
Rock | 1cd | EAC Rip | Flac + Cue + Log | covers
Repertoire REP 4998 | rem: 2003 | 345Mb

Another fine release from this unjustly ignored jazz-rock aggregation from the U.K. This transitional release, with half the tracks featuring the original lineup and the other half with a new rhythm section, is structured much the same as their earlier albums, with extended instrumental solos tucked inside of pop-rock structured songs. Although a couple of generic-sounding rock albums followed under the If name, Waterfall was, for all intents and purposes, the end of the band. ~Allmusic
Track listing
01. Waterfall (5:42)
02. The Light Still Shines (5:06)
03. Sector 17 (8:00)
04. Paint Your Pictures (5:18)
05. Cast No Shadows (7:30)
06. Throw Myself To The Wind (4:42)
07. You In Your Small Corner (Bonus) (3:29)
08. Waterfall (Single Version) (4:02)
09. Waterfall (Radio Station Mono Version) (4:01)
~ (47:52)

Personnel
- Cliff Davies - drums
- Dennis Elliott - drums
- J.W. Hodgkinson - vocals, percussion
- John Mealing - piano, organ
- Dick Morrissey - saxophones, flute, vocals
- Dave Quincy - saxophones
- Jim Richardson - bass
- Terry Smith - guitar
- Dave Wintour - electric guitar & acoustic guitar, bass, vocals

EAC extraction logfile from 21. January 2007, 17:13 for CD
If / Waterfall

Used drive : BENQ DVD DD DW1620 Adapter: 1 ID: 1
Read mode : Secure with NO C2, accurate stream, disable cache
Read offset correction : 618
Overread into Lead-In and Lead-Out : No

Used output format : Internal WAV Routines
44.100 Hz; 16 Bit; Stereo

Other options :
Fill up missing offset samples with silence : Yes
Delete leading and trailing silent blocks : No
Installed external ASPI interface

Range status and errors
Selected range
Filename C:\EAC.APE\Waterfall.wav

Peak level 100.0 %
Range quality 99.9 %
CRC 72CBC05F
Copy OK

No errors occured

End of status report

[CUETools log; Date: 2015.09.08. 10:28:13; Version: 2.1.5]
[CTDB TOCID: x7h1lS1sillIp8s6WZgEAt1CSoM-] found.
Track | CTDB Status
1 | (8/8) Accurately ripped
2 | (8/8) Accurately ripped
3 | (8/8) Accurately ripped
4 | (8/8) Accurately ripped
5 | (8/8) Accurately ripped
6 | (8/8) Accurately ripped
7 | (8/8) Accurately ripped
8 | (8/8) Accurately ripped
9 | (8/8) Accurately ripped
[AccurateRip ID: 0011c7a9-0080c8de-720b3709] found.
Track [ CRC | V2 ] Status
01 [c575d82a|d4e0cd41] (06+04/10) Accurately ripped
02 [600d93bf|472e7e97] (06+04/10) Accurately ripped
03 [74ec32fb|77c76d8d] (06+05/11) Accurately ripped
04 [cd25cef2|c1feffc8] (06+04/10) Accurately ripped
05 [e22f5473|08994301] (06+04/10) Accurately ripped
06 [56a5d67a|19f7d142] (06+04/10) Accurately ripped
07 [f156e517|7075ec13] (06+04/10) Accurately ripped
08 [66fdfdac|479a49dc] (05+04/09) Accurately ripped
09 [d6c798e9|e3a60da3] (05+04/09) Accurately ripped
Offsetted by -635:
01 [2b02bf00] (00/10) No match
02 88f1a2c (00/10) No match
03 [4339160f] (00/11) No match
04 [67c59f3c] (00/10) No match
05 [20d0dde0] (00/10) No match
06 [373ea10a] (00/10) No match
07 [af98bafc] (00/10) No match (V2 was not tested)
08 [ad94d39d] (00/09) No match (V2 was not tested)
09 [5ee8248f] (00/09) No match

Track Peak [ CRC32 ] [W/O NULL] [ LOG ]
-- 100,0 [72CBC05F] [FC65C502] CRC32
01 98,8 [24BF4107] [2FAE4ABF]
02 98,8 [780F0B9E] 36D6340
03 98,8 [C5CC498B] 439B3B2
04 98,8 [0076CE9A] [05FD28B7]
05 98,8 [026A53F3] [712EFC33]
06 98,8 [E79AA40D] [D16F8101]
07 98,8 [F5F0543B] [D2512223]
08 98,8 [C1F914D9] [DF1AE419]
09 100,0 [ED23ED16] [649F23EC]

password: asd
Download link:
Links are Interchangeable - Single Extraction - Premium is support resumable

uploaded


Rapidgator.net

Site BBcode/HTML Code:
Dear visitor, you went to the site as unregistered user.
We recommend you Sign up or Login to website under your name.
Information
Would you like to leave your comment? Please Login to your account to leave comments. Don't have an account? You can create a free account now.

Tag Cloud

archive of news

^
 
free html hit counter