» » » JamTrackCentral - 20 Minor Rock-Fusion Licks

Information of news
12-09-2015, 16:49

JamTrackCentral - 20 Minor Rock-Fusion Licks

Category: Tutorials / Other

JamTrackCentral - 20 Minor Rock-Fusion Licks

JamTrackCentral - 20 Minor Rock-Fusion Licks
WEBRip | English | MP4 + MP3 jam tracks + PDF tabs | 1280 x 720 | AVC ~1238 Kbps | 25 fps
AAC | 192 Kbps | 44.1 KHz | 2 channels | 1h 40mn | 1.26 MB
Genre: eLearning Video / Guitar lesson (2015)

Alex is back for the second entry of his 'Secrets' series and this time he's showing how to conquer the Minor Seventh chord in a Rock Fusion environment! With Alex's unique blend of creativity and all out 'feel' he has designed these licks for any player to learn from. We have included the TABs in both EADGBE and EADGCF tunings (as Alex tunes in straight fourths). Inside the deluxe edition (over 3.5Gb of material and one and half hours of pure gold) Alex himself takes you through the concept behind each lick, breaking down some of the theory and techniques involved to help you master the licks. There's also an extra bonus lick for deluxe edition owners too!
Inside this pack you will find MANY different ways to take on the Minor seventh chord. Alex makes great use of melodic choices such as the melodic minor scale, pentatonics, Dorian mode, chromatics, and a few tasty outside ideas. On the technique front you can expect some impeccable displays of tapping, sweeping, legato, string skipping, hybrid picking, odd note groupings and creative bending all blended into some of the best minor licks you'll ever hear. Alex say's 'I've tried to keep these licks at an intermediate standard so that anyone can learn from the ideas behind these licks, and of course there are some very advanced ideas in there too...My hope is that it will encourage you to come up with some really interesting licks of your own.'

This pack also contains short and extended versions of 4 static chord backings (in 4 different keys). These tracks are open enough to allow plenty of experimentation and 'choice' in what you wish to play over them, giving you the perfect backdrop to learn these licks and then implement them in a few different keys straight away.

You will also find a hidden (in plain sight) code to get 30% off of a select few other Alex Hutchings products!

As ever, we have accurately transcribed every note and included the TAB/notation in the download, full backing tracks, audio solos and track notes.

20 Original licks
20 Live videos
4 Backing tracks (short/extended)
TAB/Notation (PDF/Powertab in both EADGBE and EADGCF tunings)
Bonus basic technique/lick notes

Complete name : Lick 5 - Demo.MP4
Format : MPEG-4
Format profile : Base Media / Version 2
Codec ID : mp42
File size : 5.40 MiB
Duration : 31s 648ms
Overall bit rate mode : Variable
Overall bit rate : 1 432 Kbps
Encoded date : UTC 2015-01-14 13:32:23
Tagged date : UTC 2015-01-14 13:32:23
gsst : 0
gstd : 31695
gssd : B4A7DD842MH1421245001417725
gshh : r2---sn-cg07lues.c.youtube.com

ID : 1
Format : AVC
Format/Info : Advanced Video Codec
Format profile : [email protected]
Format settings, CABAC : Yes
Format settings, ReFrames : 1 frame
Codec ID : avc1
Codec ID/Info : Advanced Video Coding
Duration : 31s 640ms
Bit rate : 1 238 Kbps
Maximum bit rate : 2 362 Kbps
Width : 1 280 pixels
Height : 720 pixels
Display aspect ratio : 16:9
Frame rate mode : Constant
Frame rate : 25.000 fps
Color space : YUV
Chroma subsampling : 4:2:0
Bit depth : 8 bits
Scan type : Progressive
Bits/(Pixel*Frame) : 0.054
Stream size : 4.67 MiB (86%)
Tagged date : UTC 2015-01-14 13:32:23

ID : 2
Format : AAC
Format/Info : Advanced Audio Codec
Format profile : LC
Codec ID : 40
Duration : 31s 648ms
Bit rate mode : Variable
Bit rate : 192 Kbps
Maximum bit rate : 201 Kbps
Channel(s) : 2 channels
Channel positions : Front: L R
Sampling rate : 44.1 KHz
Compression mode : Lossy
Stream size : 742 KiB (13%)
Title : IsoMedia File Produced by Google, 5-11-2011
Encoded date : UTC 2015-01-14 13:32:23
Tagged date : UTC 2015-01-14 13:32:23


JamTrackCentral - 20 Minor Rock-Fusion Licks

JamTrackCentral - 20 Minor Rock-Fusion Licks

JamTrackCentral - 20 Minor Rock-Fusion Licks

JamTrackCentral - 20 Minor Rock-Fusion Licks

Download link:
Links are Interchangeable - Single Extraction - Premium is support resumable



Site BBcode/HTML Code:
Dear visitor, you went to the site as unregistered user.
We recommend you Sign up or Login to website under your name.
Would you like to leave your comment? Please Login to your account to leave comments. Don't have an account? You can create a free account now.

Tag Cloud

archive of news

free html hit counter