» » Lectures on Massage by Famous Experts of TCM Cervical Spondylosis
uploaded.to



Information of news
  • Author: BaDshaH
  • Date: 12-09-2015, 17:09
12-09-2015, 17:09

Lectures on Massage by Famous Experts of TCM Cervical Spondylosis

Category: Tutorials



"Chinese with English and Simplified Chinese subtitles. The video introduces the common acupoints for curing cervical spondylosis, basic hand techniques and prevention and care. Emphasis is put on the operations. The introduction in the DVD is professional, clear, and vivid and the massage is practical and easy to operate. This video suits both professional and non-professional audience."


With its agile usage, simple manner, safety and practicality, it is honored Green Treatment.By massage, it can relieve the muscle and vasal spasm on the affected part, improve the blood circulation, enlarge the blood supply on the certain part, accelerate renovating the pathological histiocyte, at the same time, it can eliminate swelling, ease the pressure on the nerve root and other section, so to ease or eliminate the uncomfortable symptoms by this disease. Practice with this video, there is unexpected effect.



General
Complete name : Lectures on Massage by Famous Experts of TCM Cervical Spondylosis.avi
Format
: AVI
Format/Info
: Audio Video Interleave
File size
: 994 MiB
Duration
: 50mn 26s
Overall bit rate : 2 754 Kbps
Writing library : MPlayer

Video
ID : 0
Format
: MPEG-4 Visual
Format profile : Advanced [email protected]
Format settings, BVOP : 2
Format settings, QPel : No
Format settings, GMC : No warppoints
Format settings, Matrix : Default (H.263)
Codec ID
: XVID
Codec ID/Hint : XviD
Duration
: 50mn 26s
Bit rate
: 2 492 Kbps
Width
: 720 pixels
Height
: 576 pixels
Display aspect ratio : 5:4
Frame rate
: 29.970 fps
Standard
: PAL
Color space
: YUV
Chroma subsampling

: 4:2:0
Bit depth
: 8 bits
Scan type
: Progressive
Compression mode : Lossy
Bits/(Pixel*Frame)

: 0.200
Stream size
: 899 MiB (90%)
Writing library : XviD 1.1.2 (UTC 2006-11-01)

Audio
ID : 1
Format
: MPEG Audio
Format version : Version 1
Format profile : Layer 3
Mode
: Joint stereo
Mode extension : MS Stereo
Codec ID
: 55
Codec ID/Hint : MP3
Duration
: 50mn 26s
Bit rate mode : Constant
Bit rate
: 256 Kbps
Channel(s)
: 2 channels
Sampling rate : 44.1 KHz
Compression mode : Lossy
Delay relative to video : 33ms
Stream size
: 92.4 MiB (9%)
Alignment
: Split accross interleaves
Interleave, duration : 500 ms (14.98 video frames)
Interleave, preload duration : 500 ms
Writing library :


Screenshots

Lectures on Massage by Famous Experts of TCM  Cervical Spondylosis

Lectures on Massage by Famous Experts of TCM  Cervical Spondylosis

Lectures on Massage by Famous Experts of TCM  Cervical Spondylosis



I recommends Buy premimum account for High speed+parallel downloads!

Rapidgator


Nitroflare


uploaded


Rapidgator.net

Site BBcode/HTML Code:
Dear visitor, you went to the site as unregistered user.
We recommend you Sign up or Login to website under your name.
Information
Would you like to leave your comment? Please Login to your account to leave comments. Don't have an account? You can create a free account now.

Tag Cloud

archive of news

^
 
free html hit counter