» » » BODYBALANCE 70 - Master Class (2015)
uploaded.to



Information of news
13-09-2015, 08:40

BODYBALANCE 70 - Master Class (2015)

Category: Tutorials / Other

BODYBALANCE 70 - Master Class (2015)

BODYBALANCE 70 - Master Class
DVDRip | English | AVI | 704 x 384 | XviD ~557 kbps | 29.970 fps
MP3 | 128 Kbps | 48.0 KHz | 2 channels | 00:58:47 | 294 MB
Genre: eLearning Video / Fitness, Yoga, Pilates

Ideal for anyone and everyone, BODYBALANCE is the yoga-based class that will improve your mind, your body and your life. During BODYBALANCE an inspired soundtrack plays as you bend and stretch through a series of simple yoga moves and embrace elements of Tai Chi and Pilates. Breathing control is a part of all the exercises, and instructors will always provide options for those just getting started. You'll strengthen your entire body and leave the class feeling calm and centered. Happy.
General
Complete name : C:\Users\Антонина\Downloads\BODYBALANCE70.avi
Format : AVI
Format/Info : Audio Video Interleave
File size : 294 MiB
Duration : 58mn 47s
Overall bit rate : 699 Kbps
Writing application : Lavf56.40.100

Video
ID : 0
Format : MPEG-4 Visual
Format profile : Advanced [email protected]
Format settings, BVOP : 2
Format settings, QPel : No
Format settings, GMC : No warppoints
Format settings, Matrix : Default (H.263)
Muxing mode : Packed bitstream
Codec ID : XVID
Codec ID/Hint : XviD
Duration : 58mn 47s
Bit rate : 557 Kbps
Width : 704 pixels
Height : 384 pixels
Display aspect ratio : 16:9
Frame rate : 29.970 fps
Color space : YUV
Chroma subsampling : 4:2:0
Bit depth : 8 bits
Scan type : Progressive
Compression mode : Lossy
Bits/(Pixel*Frame) : 0.069
Stream size : 234 MiB (80%)
Writing library : XviD 65

Audio
ID : 1
Format : MPEG Audio
Format version : Version 1
Format profile : Layer 3
Mode : Joint stereo
Mode extension : MS Stereo
Codec ID : 55
Codec ID/Hint : MP3
Duration : 58mn 47s
Bit rate mode : Constant
Bit rate : 128 Kbps
Channel(s) : 2 channels
Sampling rate : 48.0 KHz
Compression mode : Lossy
Stream size : 53.8 MiB (18%)
Alignment : Aligned on interleaves
Interleave, duration : 24 ms (0.72 video frame)
Interleave, preload duration : 168 ms
Writing library : LAME3.99.5

Screenshots

BODYBALANCE 70 - Master Class (2015)

BODYBALANCE 70 - Master Class (2015)

BODYBALANCE 70 - Master Class (2015)


Download link:
Links are Interchangeable - Single Extraction - Premium is support resumable

uploaded


Rapidgator.net

Site BBcode/HTML Code:
Dear visitor, you went to the site as unregistered user.
We recommend you Sign up or Login to website under your name.
Information
Would you like to leave your comment? Please Login to your account to leave comments. Don't have an account? You can create a free account now.

Tag Cloud

archive of news

^
 
free html hit counter