» » » Learn Automotive Photography in a Flash with Tim Wallace
uploaded.to



Information of news
16-09-2015, 09:48

Learn Automotive Photography in a Flash with Tim Wallace

Category: Tutorials / Other

Learn Automotive Photography in a Flash with Tim Wallace

Learn Automotive Photography in a Flash
English | MP4 | 1280 x 720 | AVC ~1800 kbps | 29.970 fps
AAC | 64 Kbps | 44.1 KHz | 2 channels | 01:44:50 | 1.37 GB
Genre: Video Tutorial / Video and Photography

Meet up with Tim Wallace, international advertising and automotive photographer, and a Ford Fairlane to learn what is possible for shooting cars with just one camera, one lens, and one speed light. You'll learn about the gear he uses, the importance of choosing a location that matches your subject, and through the power of Photoshop layer masks, how creative your lighting possibilities can be with just one light.
General
Complete name : Learn Automotive Photography in a Flash - KelbyTraining.com_7.mp4
Format : MPEG-4
Format profile : Base Media
Codec ID : isom
File size : 74.4 MiB
Duration : 5mn 33s
Overall bit rate : 1 869 Kbps
Performer : Kelby Media Group
Encoded date : UTC 2013-05-14 20:44:42
Tagged date : UTC 2013-05-14 20:44:42
Writing application : Lavf53.32.100
Copyright : kelbymediagroup.com
Comment : Copyright Kelby Media Group

Video
ID : 1
Format : AVC
Format/Info : Advanced Video Codec
Format profile : [email protected]
Format settings, CABAC : Yes
Format settings, ReFrames : 3 frames
Codec ID : avc1
Codec ID/Info : Advanced Video Coding
Duration : 5mn 33s
Bit rate : 1 800 Kbps
Width : 1 280 pixels
Height : 720 pixels
Display aspect ratio : 16:9
Frame rate mode : Constant
Frame rate : 29.970 fps
Color space : YUV
Chroma subsampling : 4:2:0
Bit depth : 8 bits
Scan type : Progressive
Bits/(Pixel*Frame) : 0.065
Stream size : 71.5 MiB (96%)
Writing library : x264 core 120
Encoding settings : cabac=1 / ref=3 / deblock=1:0:0 / analyse=0x1:0x111 / me=hex / subme=6 / psy=0 / mixed_ref=0 / me_range=16 / chroma_me=1 / trellis=1 / 8x8dct=0 / cqm=0 / deadzone=21,11 / fast_pskip=1 / chroma_qp_offset=0 / threads=48 / sliced_threads=0 / nr=0 / decimate=1 / interlaced=0 / bluray_compat=0 / constrained_intra=0 / bframes=3 / b_pyramid=0 / b_adapt=1 / b_bias=0 / direct=1 / weightb=0 / open_gop=0 / weightp=2 / keyint=150 / keyint_min=76 / scenecut=0 / intra_refresh=0 / rc=2pass / mbtree=0 / bitrate=1800 / ratetol=1.0 / qcomp=0.60 / qpmin=10 / qpmax=51 / qpstep=4 / cplxblur=20.0 / qblur=0.5 / ip_ratio=1.40 / pb_ratio=1.30 / aq=1:1.00
Language : English
Encoded date : UTC 2013-05-14 20:44:42
Tagged date : UTC 2013-05-14 20:44:42

Audio
ID : 2
Format : AAC
Format/Info : Advanced Audio Codec
Format profile : LC
Codec ID : 40
Duration : 5mn 33s
Bit rate mode : Constant
Bit rate : 64.0 Kbps
Channel(s) : 1 channel
Channel positions : Front: C
Sampling rate : 44.1 KHz
Compression mode : Lossy
Stream size : 2.54 MiB (3%)
Language : English
Encoded date : UTC 2013-05-14 20:44:42
Tagged date : UTC 2013-05-14 20:44:42

Screenshots

Learn Automotive Photography in a Flash with Tim Wallace

Learn Automotive Photography in a Flash with Tim Wallace

Learn Automotive Photography in a Flash with Tim Wallace

Learn Automotive Photography in a Flash with Tim Wallace

Learn Automotive Photography in a Flash with Tim Wallace


Download link:
Links are Interchangeable - Single Extraction - Premium is support resumable

uploaded


Rapidgator.net

Site BBcode/HTML Code:
Dear visitor, you went to the site as unregistered user.
We recommend you Sign up or Login to website under your name.
Information
Would you like to leave your comment? Please Login to your account to leave comments. Don't have an account? You can create a free account now.

Tag Cloud

archive of news

^
 
free html hit counter