» » Rodney Mannsfield - Love In a Serious Way (1993)
uploaded.to



Information of news
20-09-2015, 04:41

Rodney Mannsfield - Love In a Serious Way (1993)

Category: Music

Rodney Mannsfield - Love In a Serious Way (1993)

Rodney Mannsfield - Love In a Serious Way (1993)
EAC Rip | FLAC (Tracks) +CUE, LOG | 453 MB | Covers Included
Jazz | Label: A&M Records | Catalog Number: 31454 0009 2

Rodney began his musical journey at the age of eight. He joined many a local band as a trumpet player, which afforded him the opportunity to write songs, perform around town and perfect his craft, center stage.
Rodney became part of a four-piece brass section that he loved to play with, until one night the lead singer of the band was unable to sing. The manager of the group asked everyone to help out with the vocals that had to be sung that night. There were three other members of the band that took turns singing different parts of the songs that were being played.
They were able to finish the show, get paid, and have a lot of laughs about some of the singing they heard that night. The following day the manager of the group approached Rodney and said, "we want you to stop playing trumpet, and start singing ". At first, Rodney was opposed to that idea. However, Rodney had to start singing in this band. He came to rehearsal, and found that he had been replaced by a new trumpet player.
Little did he know, this would be the beginning of a wonderful musical journey.
As a life long student of his craft, Rodney found "creating music to be the means by which I've been able to express what's happening around me". Rodney says "it makes me feel as though I'm fully in touch with the people in my life, and the places I've been".
Citing Stevie Wonder, Donny Hathaway, and James Taylor among his many inspirations, Rodney describes his music as "being the connection to his heart". His music speaks of the "joy of love, the pain of loss, adoration, and all that fits in between". When performing his new material, Rodney's voice is rich, and his delivery heartfelt.
Rodney has collaborated with producer Michael Powell (of Anita Baker fame) and garnered the "Best Male Newcomer" honor from the British music magazine "Blues and Soul". Rodney has shared the stage with the great Gladys Knight, Angie Stone, Phyllis Hyman, Will Downing, Atlantic Starr, and H-Town to name a few.
But when he is asked to share a highlight from his musical past, he ponders for a moment and then offers, "after one of my shows, a woman came up to me and said ‘this was the first time I went to a concert and felt really safe'. Her words assured me that I was doing exactly what I was put here to do".
Rodney Mannsfield is currently based in Philadelphia, PA. He is focused on writing and performing some of the best songs he has ever composed for his new CD, "A Long Road Home".

Exact Audio Copy V1.0 beta 3 from 29. August 2011

EAC extraction logfile from 11. September 2015, 21:59

Rodney Mannsfield / Love in a Serious Way

Used drive : GENERIC CDRCB05 Adapter: 4 ID: 0

Read mode : Secure
Utilize accurate stream : Yes
Defeat audio cache : Yes
Make use of C2 pointers : No

Read offset correction : 102
Overread into Lead-In and Lead-Out : No
Fill up missing offset samples with silence : Yes
Delete leading and trailing silent blocks : No
Null samples used in CRC calculations : Yes
Used interface : Native Win32 interface for Win NT & 2000
Gap handling : Appended to previous track

Used output format : User Defined Encoder
Selected bitrate : 1024 kBit/s
Quality : High
Add ID3 tag : No
Command line compressor : C:\Program Files\FLAC\flac.exe
Additional command line options : -8 -V -T "ARTIST=%artist%" -T "TITLE=%title%" -T "ALBUM=%albumtitle%" -T "DATE=%year%" -T "TRACKNUMBER=%tracknr%" -T "GENRE=%genre%" -T "PERFORMER=%albuminterpret%" -T "COMPOSER=%composer%" %haslyrics%--tag-from-file=LYRICS="%lyricsfile%"%haslyrics% -T "ALBUMARTIST=%albumartist%" -T "DISCNUMBER=%cdnumber%" -T "TOTALDISCS=%totalcds%" -T "TOTALTRACKS=%numtracks%" -T "COMMENT=%comment%" %source% -o %dest%

TOC of the extracted CD

Track | Start | Length | Start sector | End sector
---------------------------------------------------------
1 | 0:00.00 | 4:53.50 | 0 | 22024
2 | 4:53.50 | 5:24.35 | 22025 | 46359
3 | 10:18.10 | 4:47.03 | 46360 | 67887
4 | 15:05.13 | 5:21.32 | 67888 | 91994
5 | 20:26.45 | 5:41.05 | 91995 | 117574
6 | 26:07.50 | 5:30.50 | 117575 | 142374
7 | 31:38.25 | 4:48.63 | 142375 | 164037
8 | 36:27.13 | 5:21.72 | 164038 | 188184
9 | 41:49.10 | 4:40.28 | 188185 | 209212
10 | 46:29.38 | 5:18.30 | 209213 | 233092

Track 1

Filename G:\POSTS\Rodney Mannsfield - Love In a Serious Way (1993)\01 - I've Got To Be Loved.wav

Pre-gap length 0:00:02.00

Peak level 100.0 %
Extraction speed 1.5 X
Track quality 100.0 %
Test CRC EB8C270B
Copy CRC EB8C270B
Accurately ripped (confidence 5) [2C7C4B0F] (AR v2)
Copy OK

Track 2

Filename G:\POSTS\Rodney Mannsfield - Love In a Serious Way (1993)\02 - Wanna Make Luv 2 U.wav

Pre-gap length 0:00:00.62

Peak level 100.0 %
Extraction speed 1.7 X
Track quality 100.0 %
Test CRC 7AE6996B
Copy CRC 7AE6996B
Accurately ripped (confidence 5) [EC89C8B8] (AR v2)
Copy OK

Track 3

Filename G:\POSTS\Rodney Mannsfield - Love In a Serious Way (1993)\03 - One More Time.wav

Pre-gap length 0:00:01.32

Peak level 100.0 %
Extraction speed 1.9 X
Track quality 100.0 %
Test CRC 8B642028
Copy CRC 8B642028
Accurately ripped (confidence 5) [4A266221] (AR v2)
Copy OK

Track 4

Filename G:\POSTS\Rodney Mannsfield - Love In a Serious Way (1993)\04 - So Good, So Special.wav

Pre-gap length 0:00:01.03

Peak level 100.0 %
Extraction speed 2.0 X
Track quality 100.0 %
Test CRC D83C9033
Copy CRC D83C9033
Accurately ripped (confidence 5) [2B43135B] (AR v2)
Copy OK

Track 5

Filename G:\POSTS\Rodney Mannsfield - Love In a Serious Way (1993)\05 - A Song For You.wav

Pre-gap length 0:00:01.10

Peak level 100.0 %
Extraction speed 2.2 X
Track quality 100.0 %
Test CRC 1A12D887
Copy CRC 1A12D887
Accurately ripped (confidence 5) [7AA0E488] (AR v2)
Copy OK

Track 6

Filename G:\POSTS\Rodney Mannsfield - Love In a Serious Way (1993)\06 - I Found Heaven.wav

Pre-gap length 0:00:01.45

Peak level 100.0 %
Extraction speed 2.1 X
Track quality 99.9 %
Test CRC FC6B623B
Copy CRC FC6B623B
Accurately ripped (confidence 5) [0107FC80] (AR v2)
Copy OK

Track 7

Filename G:\POSTS\Rodney Mannsfield - Love In a Serious Way (1993)\07 - Nothin' Better Than Lovin' You.wav

Peak level 100.0 %
Extraction speed 2.2 X
Track quality 99.9 %
Test CRC C558D3C3
Copy CRC C558D3C3
Accurately ripped (confidence 5) [06014C43] (AR v2)
Copy OK

Track 8

Filename G:\POSTS\Rodney Mannsfield - Love In a Serious Way (1993)\08 - Living Without A Heart.wav

Pre-gap length 0:00:01.63

Peak level 100.0 %
Extraction speed 2.5 X
Track quality 100.0 %
Test CRC 6D39710C
Copy CRC 6D39710C
Accurately ripped (confidence 5) [90EC9072] (AR v2)
Copy OK

Track 9

Filename G:\POSTS\Rodney Mannsfield - Love In a Serious Way (1993)\09 - Hold On.wav

Pre-gap length 0:00:01.25

Peak level 100.0 %
Extraction speed 2.6 X
Track quality 100.0 %
Test CRC B8CC534E
Copy CRC B8CC534E
Accurately ripped (confidence 5) [11A7228C] (AR v2)
Copy OK

Track 10

Filename G:\POSTS\Rodney Mannsfield - Love In a Serious Way (1993)\10 - Love In A Serious Way.wav

Pre-gap length 0:00:02.38

Peak level 100.0 %
Extraction speed 2.5 X
Track quality 99.9 %
Test CRC 9E59F1C9
Copy CRC 9E59F1C9
Accurately ripped (confidence 5) [CD65FD25] (AR v2)
Copy OK

All tracks accurately ripped

No errors occurred

End of status report

==== Log checksum 5FE15BE0CC4E3AE86A27435A758692874B65C1D892CEE18793C6DBC42BF6482D ====

Tracklist:
01. I've Got To Be Loved
02. Wanna Make Luv 2 U
03. One More Time
04. So Good, So Special
05. A Song For You
06. I Found Heaven
07. Nothin' Better Than Lovin' You
08. Living Without A Heart
09. Hold On
10. Love In A Serious Way
Download link:
Links are Interchangeable - Single Extraction - Premium is support resumable

uploaded


Rapidgator.net

Site BBcode/HTML Code:
Dear visitor, you went to the site as unregistered user.
We recommend you Sign up or Login to website under your name.
Information
Would you like to leave your comment? Please Login to your account to leave comments. Don't have an account? You can create a free account now.

Tag Cloud

archive of news

^
 
free html hit counter