» » Permaculture Skills - Part 1 of 4 (2015) [10 WebRips (MP4) & 1 eBook (PDF)]

Information of news
  • Author: BaDshaH
  • Date: 22-09-2015, 10:24
22-09-2015, 10:24

Permaculture Skills - Part 1 of 4 (2015) [10 WebRips (MP4) & 1 eBook (PDF)]

Category: Tutorials

The Certified Permaculture Design Course (PDC) has become a standard in permaculture training across the world for those wishing to create resilient, productive systems for themselves or their clients. PDCs are typically taught over a period of several days and can represent an investment in time and money that many people aren't able to make. While this film series won't be a substitute for attending such a course in person (and won't provide any kind of certification) we believe it will introduce the viewers to many of the lessons taught in a PDC in a format accessible to anyone.
Filmed entirely on location in the beautiful hills of central Vermont, this educational documentary series offers an opportunity to join students as they learn to become permaculture designers and practitioners during an applied Permaculture Design Course hosted by Whole Systems Design LLC. Condensing the contents of two separate 10-day courses, the Permaculture Skills film series is an invitation to share in the experience and learn from a combination of academic teaching, practical field work and hands-on workshops.

The pdf is an expanded explanation of the video content listed below.


1.00 Opening credits
1.01 Whole Systems Design PDC Introduction
1.02 Whole Systems Design research farm II site visit
1.03 Defining Permaculture
1.04 Contour lines with laser level & A-frame
1.05 The Design Process: Goals articulation
1.06 Extension with offsets and triangulation
1.07 A discussion on ethics and principles
1.08 Designing for zones 4 & 5
1.09 Being poor and living rich
1.10 Closing credits

Complete name : 1.01 Whole Systems Design PDC Introduction.mp4
: MPEG-4
Format profile : Base Media / Version 2
Codec ID
: mp42
File size
: 33.7 MiB
: 8mn 51s
Overall bit rate mode : Variable
Overall bit rate : 531 Kbps
Encoded date : UTC 2015-05-05 00:28:20
Tagged date
: UTC 2015-05-05 00:28:20

ID : 1
: Advanced Video Codec
Format settings, CABAC : Yes
Format settings, Reframes : 4 frames
Codec ID
: avc1
Codec ID/Info : Advanced Video Coding
: 8mn 51s
Bit rate
: 424 Kbps
: 640 pixels
: 360 pixels
Display aspect ratio : 16:9
frame rate mode : Constant
frame rate
: 23.976 fps
Color space
Chroma subsampling

: 4:2:0
Bit depth
: 8 bits
Scan type
: Progressive

: 0.077
Stream size
: 26.9 MiB (80%)
Writing library : x264 core 146 r16 121396c

Encoded date : UTC 2015-05-05 00:28:20
Tagged date
: UTC 2015-05-05 00:28:20
Color primaries : BT.601 NTSC
Transfer characteristics : BT.601
Matrix coefficients

: BT.601
Color range
: Limited

ID : 2
: Advanced Audio Codec
Format profile : LC
Codec ID
: 40
: 8mn 51s
Bit rate mode : Variable
Bit rate
: 103 Kbps
: 2 channels
Channel positions: Front: L R
Sampling rate : 48.0 KHz
Compression mode : Lossy
Stream size
: 6.52 MiB (19%)
Encoded date : UTC 2015-05-05 00:28:20
Tagged date
: UTC 2015-05-05 00:28:20

I recommends Buy premimum account for High speed+parallel downloads!





Site BBcode/HTML Code:
Dear visitor, you went to the site as unregistered user.
We recommend you Sign up or Login to website under your name.
Would you like to leave your comment? Please Login to your account to leave comments. Don't have an account? You can create a free account now.

Tag Cloud

archive of news

free html hit counter