» » » Chris Severson - Evolution of Onerous (2015)
uploaded.to



Information of news
23-09-2015, 13:19

Chris Severson - Evolution of Onerous (2015)

Category: Tutorials / Other

Chris Severson - Evolution of Onerous (2015)

Chris Severson - Evolution of Onerous
WEBRip | English | MP4 | 640 x 360 | AVC ~2823 kbps | 23.976 fps
AAC | 88.6 Kbps | 48.0 KHz | 2 channels | 22 minutes | 459 MB
Genre: eLearning Video / Magic tricks, illusion (2015)

A great lesson for tricks with cards, Chris Severson will show you three versions of change card.
General
Complete name : Chris Severson - Evolution of Onerous.mp4
Format : MPEG-4
Format profile : Base Media
Codec ID : isom
File size : 459 MiB
Duration : 22mn 0s
Overall bit rate mode : Variable
Overall bit rate : 2 914 Kbps
Encoded date : UTC 2014-05-28 23:42:35
Tagged date : UTC 2014-05-28 23:42:35

Video
ID : 1
Format : AVC
Format/Info : Advanced Video Codec
Format profile : [email protected]
Format settings, CABAC : No
Format settings, ReFrames : 3 frames
Codec ID : avc1
Codec ID/Info : Advanced Video Coding
Duration : 22mn 0s
Bit rate : 2 823 Kbps
Maximum bit rate : 5 657 Kbps
Width : 640 pixels
Height : 360 pixels
Display aspect ratio : 16:9
Frame rate mode : Constant
Frame rate : 23.976 fps
Color space : YUV
Chroma subsampling : 4:2:0
Bit depth : 8 bits
Scan type : Progressive
Bits/(Pixel*Frame) : 0.511
Stream size : 444 MiB (97%)
Writing library : Zencoder Video Encoding System
Encoded date : UTC 2014-05-28 23:36:31
Tagged date : UTC 2014-05-28 23:42:35

Audio
ID : 2
Format : AAC
Format/Info : Advanced Audio Codec
Format profile : LC
Codec ID : 40
Duration : 22mn 0s
Bit rate mode : Variable
Bit rate : 88.6 Kbps
Maximum bit rate : 108 Kbps
Channel(s) : 2 channels
Channel positions : Front: L R
Sampling rate : 48.0 KHz
Compression mode : Lossy
Stream size : 13.9 MiB (3%)
Encoded date : UTC 2014-05-28 23:42:35
Tagged date : UTC 2014-05-28 23:42:35

Screenshots

Chris Severson - Evolution of Onerous (2015)

Chris Severson - Evolution of Onerous (2015)

Chris Severson - Evolution of Onerous (2015)


Download link:
Links are Interchangeable - Single Extraction - Premium is support resumable

uploaded


Rapidgator.net

Site BBcode/HTML Code:
Dear visitor, you went to the site as unregistered user.
We recommend you Sign up or Login to website under your name.
Information
Would you like to leave your comment? Please Login to your account to leave comments. Don't have an account? You can create a free account now.

Tag Cloud

archive of news

^
 
free html hit counter