» » Synthesis & Sound Design Understanding FM Synthesis with King Unique (2015)
uploaded.to



Information of news
  • Author: kityvn
  • Date: 26-09-2015, 17:27
26-09-2015, 17:27

Synthesis & Sound Design Understanding FM Synthesis with King Unique (2015)

Category: Tutorials



"Join Matt Thomas (King Unique) as he demystifies one of the most powerful, yet often misunderstood studio tools.. FM Synthesis
FM is a beast to get to grips with.. but here Matt lays down the foundations by giving us a bit of background history on the technology before covering all the most common parameters and functions of FM and finishing with some sound design examples. Using Ableton Live's Operator, all of the learning outcomes and core concepts in this course can be easily applied to any modern FM synth such as FM8, FL's Sytrus and even Logic's basic EFM1 or Retro synths."





Well explained and easy to understand, after this FM shouldn't be that scary thing you shy away from anymore, but a major weapon you can now add to your production arsenal. Just check out the sound examples in the last video to see how powerf



General
Complete name : FM - part4.avi
Format
: AVI
Format/Info
: Audio Video Interleave
File size
: 39.5 MiB
Duration
: 20mn 34s
Overall bit rate : 268 Kbps
IENC
: Total Recorder 8.5, VideoPro Edition
TRRT
: 2015.08.03 16:18:15 (UTC)

Video
ID : 0
Format
: MPEG-4 Visual
Format profile : [email protected]
Format settings, BVOP : No
Format settings, QPel : No
Format settings, GMC : No warppoints
Format settings, Matrix : Default (H.263)
Codec ID
: XVID
Codec ID/Hint : XviD
Duration
: 20mn 34s
Bit rate
: 126 Kbps
Width
: 988 pixels
Height
: 540 pixels
Display aspect ratio : 16:9
Frame rate
: 15.000 fps
Color space
: YUV
Chroma subsampling

: 4:2:0
Bit depth
: 8 bits
Scan type
: Progressive
Compression mode : Lossy
Bits/(Pixel*Frame)

: 0.016
Stream size
: 18.5 MiB (47%)
Writing library : Lavc52.41.0

Audio
ID : 1
Format
: MPEG Audio
Format version : Version 1
Format profile : Layer 3
Mode
: Joint stereo
Mode extension : MS Stereo
Codec ID
: 55
Codec ID/Hint : MP3
Duration
: 20mn 34s
Source duration : 20mn 31s
Bit rate mode : Constant
Bit rate
: 128 Kbps
Channel(s)
: 2 channels
Sampling rate : 44.1 KHz
Compression mode : Lossy
Stream size
: 18.8 MiB (48%)
Alignment
: Aligned on interleaves
Interleave, duration : 26 ms (0.39 video frame)


Screenshots

Synthesis & Sound Design Understanding FM Synthesis with King Unique (2015)

Synthesis & Sound Design Understanding FM Synthesis with King Unique (2015)

Synthesis & Sound Design Understanding FM Synthesis with King Unique (2015)

Synthesis & Sound Design Understanding FM Synthesis with King Unique (2015)



I recommends Buy premimum account for High speed+parallel downloads!

Rapidgator


Nitroflare


uploaded


Rapidgator.net

Site BBcode/HTML Code:
Dear visitor, you went to the site as unregistered user.
We recommend you Sign up or Login to website under your name.
Information
Would you like to leave your comment? Please Login to your account to leave comments. Don't have an account? You can create a free account now.

Tag Cloud

archive of news

^
 
free html hit counter