» » Kiss - Kiss (1974) [1989, Japan, PPD-8001]
uploaded.to



Information of news
1-10-2015, 06:07

Kiss - Kiss (1974) [1989, Japan, PPD-8001]

Category: Music

Kiss - Kiss (1974) [1989, Japan, PPD-8001]

Kiss - Kiss (1974) [1989, Japan, PPD-8001]
Rock, Hard Rock, Glam | EAC Rip | FLAC, Img+CUE + LOG + Full Artwork-600dpi (JPEG) | 35:36 Min | 266,98 Mb
Label: Casablanca Records Inc. (USA)/Nippon Phonogram Co., Ltd. (Japan) | Released: 1989, September, 5

[quote]“
Kiss is the debut album by American rock band Kiss, released on February 18, 1974. Much of the material on the album was written by Gene Simmons and Paul Stanley, as members of their pre-Kiss band Wicked Lester. Simmons estimated that the entire process of recording and mixing took three weeks, while co-producer Richie Wise has stated it took just 13 days.
”[/quote]
source: wikipedia
Review by Greg Prato:
Kiss' 1974 self-titled debut is one of hard rock's all-time classic studio recordings. Kiss is chock full of their best and most renowned compositions, containing elements of Rolling Stones/New York Dolls party-hearty rock & roll, Beatles tunefulness, and Sabbath/Zep heavy metal, and wisely recorded primal and raw by producers Richie Wise and Kenny Kerner (of Gladys Knight fame). Main songwriters Stanley and Simmons each had a knack for coming up with killer melodies and riffs, as evidenced by "Nothin' to Lose" and "Deuce" (by Simmons), "Firehouse" and "Black Diamond" (by Stanley), as well as "Strutter" and "100,000 Years" (collaborations by the two). Also included is the Ace Frehley alcohol anthem "Cold Gin," "Let Me Know" (a song that Stanley played for Simmons upon their very first meeting, then titled "Sunday Driver"), and one of Kiss' few instrumentals: the groovy "Love Theme from Kiss" (penned by the entire band). The only weak track is a tacky cover of the 1959 Bobby Rydell hit "Kissin' Time," which was added to subsequent pressings of the album to tie in with a "Kissing Contest" promotion the band was involved in at the time. Along with 1976's Destroyer, Kiss' self-titled debut is their finest studio album, and has only improved over the years.
”[/quote]


Release of the album: 1974, February, 18 LP Casablanca Records, Cat.# NB 9001 , USA
Release of this CD: 1989, September, 5 [CD Nippon Phonogram Co., Ltd. (Japan), Cat.# PPD-8001 / EAN: 4988011317750]
℗ 1974 Casablanca Records, Inc.
Manufactured and distributed by Nippon Phonogram Co., Ltd., Tokyo. Made in Japan.
JASRAC

Bass – Gene Simmons
Design – Lockart
Drums – Peter Criss
Electric Guitar – Ace Frehley, Paul Stanley
Engineer – Warren Dewey
Photography By – Joel Brodsky
Producer – Kenny Kerner, Richie Wise


Tracklist:

01. "Strutter" (03:13)
(Gene Simmons / Paul Stanley)
02. "Nothin' To Lose'" (03:29)
(Gene Simmons)
03. "Firehouse" (03:20)
(Paul Stanley)
04. "Cold Gin" (04:24)
(Ace Frehley)
05. "Let Me Know" (03:01)
(Paul Stanley)
06. "Kissin' Time" (03:54)
(Bernie Lowe / Kal Mann)
07. "Deuce" (03:09)
(Gene Simmons)
08. "Love Theme From Kiss" (02:27)
(Peter Criss / Ace Frehley / Gene Simmons / Paul Stanley)
09. "100,000 Years" (03:25)
(Gene Simmons / Paul Stanley)
10. "Black Diamond" (05:14)
(Paul Stanley)



Exact Audio Copy V1.1 from 23. June 2015

EAC extraction logfile from 27. September 2015, 15:27

KISS / KISS

Used drive : ASUS DRW-24F1ST b Adapter: 1 ID: 0

Read mode : Secure
Utilize accurate stream : Yes
Defeat audio cache : Yes
Make use of C2 pointers : No

Read offset correction : 6
Overread into Lead-In and Lead-Out : No
Fill up missing offset samples with silence : Yes
Delete leading and trailing silent blocks : No
Null samples used in CRC calculations : Yes
Used interface : Native Win32 interface for Win NT & 2000

Used output format : User Defined Encoder
Selected bitrate : 768 kBit/s
Quality : High
Add ID3 tag : No
Command line compressor : C:\Program Files (x86)\Exact Audio Copy\FLAC\FLAC.EXE
Additional command line options : -8 -V -T "ARTIST=%artist%" -T "TITLE=%title%" -T "ALBUM=%albumtitle%" -T "DATE=%year%" -T "TRACKNUMBER=%tracknr%" -T "GENRE=%genre%" -T "COMMENT=%comment%" -T "BAND=%albuminterpret%" -T "ALBUMARTIST=%albuminterpret%" -T "COMPOSER=%composer%" %haslyrics%--tag-from-file=LYRICS="%lyricsfile%"%haslyrics% -T "DISCNUMBER=%cdnumber%" -T "TOTALDISCS=%totalcds%" -T "TOTALTRACKS=%numtracks%" %hascover%--picture="%coverfile%"%hascover% %source% -o %dest%


TOC of the extracted CD

Track | Start | Length | Start sector | End sector
---------------------------------------------------------
1 | 0:00.37 | 3:13.23 | 37 | 14534
2 | 3:13.60 | 3:29.20 | 14535 | 30229
3 | 6:43.05 | 3:19.70 | 30230 | 45224
4 | 10:03.00 | 4:24.00 | 45225 | 65024
5 | 14:27.00 | 3:01.05 | 65025 | 78604
6 | 17:28.05 | 3:54.10 | 78605 | 96164
7 | 21:22.15 | 3:08.55 | 96165 | 110319
8 | 24:30.70 | 2:26.62 | 110320 | 121331
9 | 26:57.57 | 3:25.35 | 121332 | 136741
10 | 30:23.17 | 5:14.03 | 136742 | 160294


Range status and errors

Selected range

Filename G:\Music\KISS - KISS.wav

Peak level 84.1 %
Extraction speed 8.7 X
Range quality 100.0 %
Test CRC E03143C9
Copy CRC E03143C9
Copy OK

No errors occurred


AccurateRip summary

Track 1 cannot be verified as accurate (confidence 2) [35DAF4AF], AccurateRip returned [AEB96FB7] (AR v2)
Track 2 cannot be verified as accurate (confidence 2) [FE1B5823], AccurateRip returned [9F2C7DA1] (AR v2)
Track 3 cannot be verified as accurate (confidence 2) [2520D21F], AccurateRip returned [D3ED6FD3] (AR v2)
Track 4 cannot be verified as accurate (confidence 2) [96EB6C9A], AccurateRip returned [18166AF6] (AR v2)
Track 5 cannot be verified as accurate (confidence 2) [4CC35217], AccurateRip returned [0DE5F1A6] (AR v2)
Track 6 cannot be verified as accurate (confidence 2) [6426C99E], AccurateRip returned [F5F8C8B1] (AR v2)
Track 7 cannot be verified as accurate (confidence 2) [432E840B], AccurateRip returned [9994669C] (AR v2)
Track 8 cannot be verified as accurate (confidence 2) [E7295343], AccurateRip returned [AE54C99C] (AR v2)
Track 9 cannot be verified as accurate (confidence 2) [9F7A5475], AccurateRip returned [1ED97946] (AR v2)
Track 10 cannot be verified as accurate (confidence 2) [218B271C], AccurateRip returned [D0FFE121] (AR v2)

No tracks could be verified as accurate
You may have a different pressing from the one(s) in the database

End of status report

==== Log checksum C2916449ECF6CFB374FA865B9CEC124F17678BE7DA8297A46912B536C52157BE ====


foobar2000 1.3.7 / Dynamic Range Meter 1.1.1
log date: 2015-10-01 01:04:06

--------------------------------------------------------------------------------
Analyzed: KISS / KISS
--------------------------------------------------------------------------------

DR Peak RMS Duration Track
--------------------------------------------------------------------------------
DR11 -1.69 dB -15.15 dB 3:13 01-Strutter
DR11 -2.62 dB -16.82 dB 3:29 02-Nothin' To Lose
DR11 -2.38 dB -16.72 dB 3:20 03-Firehouse
DR11 -1.50 dB -16.40 dB 4:24 04-Cold Gin
DR11 -2.07 dB -16.48 dB 3:01 05-Let Me Know
DR11 -4.20 dB -16.87 dB 3:54 06-Kissin' Time
DR10 -3.47 dB -16.87 dB 3:09 07-Deuce
DR12 -4.24 dB -18.33 dB 2:27 08-Love Theme From Kiss
DR11 -4.49 dB -17.00 dB 3:25 09-100,000 Years
DR10 -4.26 dB -16.41 dB 5:14 10-Black Diamond
--------------------------------------------------------------------------------

Number of tracks: 10
Official DR value: DR11

Samplerate: 44100 Hz
Channels: 2
Bits per sample: 16
Bitrate: 870 kbps
Codec: FLAC
================================================================================
[quote][/quote]

uploaded


Rapidgator.net

Site BBcode/HTML Code:
Dear visitor, you went to the site as unregistered user.
We recommend you Sign up or Login to website under your name.
Information
Would you like to leave your comment? Please Login to your account to leave comments. Don't have an account? You can create a free account now.

Tag Cloud

archive of news

^
 
free html hit counter