» » Atelier Schola Cantorum Vol. 6: Halffter, Spahlinger, Marco, Penderecki, Kelemen, Ligeti, Berg, Mahler (1994)
uploaded.to



Information of news
1-10-2015, 12:12

Atelier Schola Cantorum Vol. 6: Halffter, Spahlinger, Marco, Penderecki, Kelemen, Ligeti, Berg, Mahler (1994)

Category: Music

Atelier Schola Cantorum Vol. 6: Halffter, Spahlinger, Marco, Penderecki, Kelemen, Ligeti, Berg, Mahler (1994)

Atelier Schola Cantorum Vol. 6: Halffter, Spahlinger, Marco, Penderecki, Kelemen, Ligeti, Berg, Mahler (1994)
Classical/Early 20th Century/Contemporary | FLAC lossless | cuesheets+log | covers+booklet | 77m10s | 336mb
Label: Cadenza | cat. no. 800896

Volume 6 of this magnificent set of modern classical singing. It will take one or two weeks before I can proceed with the remaining volumes.
Note: you will see ‘suspicious positions' concerning track 12 in the log. As so often, I cannot hear what EAC was fussing about during the rip - or else it managed to repair the affected area seamlessly.

Tracks:

01. Christobal Halffter / Jarchas de dolor de ausencia [0:21:56.66]
02. Mathias Spahlinger / Sotto voce [0:05:25.00]
03. Tomas Marco / Transfiguracion [0:09:49.00]
04. Krzysztof Penderecki / Ecloga VIII [0:08:18.00]
05. Milko Kelemen / Monogatari [0:10:57.33]
06. György Ligeti / Magany [0:03:01.16]
07. György Ligeti / Papaine [0:03:11.50]
08. György Ligeti / Magyar Etüdök I [0:01:51.00]
09. György Ligeti / Magyar Etüdök II [0:01:52.49]
10. György Ligeti / Magyar Etüdök III [0:02:07.50]
11. Alban Berg / Die Nachtigall [0:02:40.49]
12. Gustav Mahler / Ich bin der Welt abhanden gekommen [0:06:00.33]

Performers:

Schola Cantorum Stuttgart - Clytus Gottwald

Exact Audio Copy V1.0 beta 3 from 29. August 2011

EAC extraction logfile from 25. September 2015, 21:13

Various Artists / Atelier Schola Cantorum 6

Used drive : TSSTcorpCDDVDW SH-216AB Adapter: 0 ID: 0

Read mode : Secure
Utilize accurate stream : Yes
Defeat audio cache : Yes
Make use of C2 pointers : No

Read offset correction : 6
Overread into Lead-In and Lead-Out : No
Fill up missing offset samples with silence : Yes
Delete leading and trailing silent blocks : No
Null samples used in CRC calculations : Yes
Used interface : Native Win32 interface for Win NT & 2000
Gap handling : Appended to previous track

Used output format : User Defined Encoder
Selected bitrate : 768 kBit/s
Quality : High
Add ID3 tag : No
Command line compressor : C:\Program Files (x86)\FLAC Frontend\tools\flac.exe
Additional command line options : -8 -V -T "ARTIST=%artist%" -T "TITLE=%title%" -T "ALBUM=%albumtitle%" -T "DATE=%year%" -T "TRACKNUMBER=%tracknr%" -T "GENRE=%genre%" -T "PERFORMER=%albuminterpret%" -T "COMPOSER=%composer%" %haslyrics%--tag-from-file=LYRICS="%lyricsfile%"%haslyrics% -T "ALBUMARTIST=%albumartist%" -T "DISCNUMBER=%cdnumber%" -T "TOTALDISCS=%totalcds%" -T "TOTALTRACKS=%numtracks%" -T "COMMENT=%comment%" %source% -o %dest%

TOC of the extracted CD

Track | Start | Length | Start sector | End sector
---------------------------------------------------------
1 | 0:00.00 | 21:56.50 | 0 | 98749
2 | 21:56.50 | 5:25.00 | 98750 | 123124
3 | 27:21.50 | 9:49.00 | 123125 | 167299
4 | 37:10.50 | 8:18.00 | 167300 | 204649
5 | 45:28.50 | 10:57.25 | 204650 | 253949
6 | 56:26.00 | 3:01.12 | 253950 | 267536
7 | 59:27.12 | 3:11.38 | 267537 | 281899
8 | 62:38.50 | 1:51.00 | 281900 | 290224
9 | 64:29.50 | 1:52.37 | 290225 | 298661
10 | 66:22.12 | 2:07.38 | 298662 | 308224
11 | 68:29.50 | 2:40.37 | 308225 | 320261
12 | 71:10.12 | 6:00.25 | 320262 | 347286

Track 1

Filename H:\Users\astarte\03. POST\atelier schola cantorum 6\01 Jarchas de dolor de ausencia.wav

Pre-gap length 0:00:02.00

Peak level 75.5 %
Extraction speed 2.6 X
Track quality 99.9 %
Copy CRC 447A9BC1
Track not present in AccurateRip database
Copy OK

Track 2

Filename H:\Users\astarte\03. POST\atelier schola cantorum 6\02 Sotto voce.wav

Pre-gap length 0:00:03.06

Peak level 65.3 %
Extraction speed 2.6 X
Track quality 99.9 %
Copy CRC 53D6611C
Track not present in AccurateRip database
Copy OK

Track 3

Filename H:\Users\astarte\03. POST\atelier schola cantorum 6\03 Transfiguracion.wav

Pre-gap length 0:00:02.04

Peak level 56.1 %
Extraction speed 3.4 X
Track quality 100.0 %
Copy CRC EEE5B8D1
Track not present in AccurateRip database
Copy OK

Track 4

Filename H:\Users\astarte\03. POST\atelier schola cantorum 6\04 Ecloga VIII.wav

Pre-gap length 0:00:05.37

Peak level 61.3 %
Extraction speed 3.3 X
Track quality 99.9 %
Copy CRC 16D79AB9
Track not present in AccurateRip database
Copy OK

Track 5

Filename H:\Users\astarte\03. POST\atelier schola cantorum 6\05 Monogatari.wav

Pre-gap length 0:00:03.60

Peak level 75.0 %
Extraction speed 3.6 X
Track quality 99.9 %
Copy CRC 7FE1293C
Track not present in AccurateRip database
Copy OK

Track 6

Filename H:\Users\astarte\03. POST\atelier schola cantorum 6\06 Magany.wav

Pre-gap length 0:00:05.37

Peak level 82.0 %
Extraction speed 3.6 X
Track quality 100.0 %
Copy CRC 75A6B52D
Track not present in AccurateRip database
Copy OK

Track 7

Filename H:\Users\astarte\03. POST\atelier schola cantorum 6\07 Papaine.wav

Pre-gap length 0:00:02.56

Peak level 73.7 %
Extraction speed 3.7 X
Track quality 100.0 %
Copy CRC 9E49C369
Track not present in AccurateRip database
Copy OK

Track 8

Filename H:\Users\astarte\03. POST\atelier schola cantorum 6\08 Magyar Etüdök I.wav

Pre-gap length 0:00:04.53

Peak level 20.9 %
Extraction speed 3.4 X
Track quality 100.0 %
Copy CRC 1D7D3FE1
Track not present in AccurateRip database
Copy OK

Track 9

Filename H:\Users\astarte\03. POST\atelier schola cantorum 6\09 Magyar Etüdök II.wav

Pre-gap length 0:00:01.37

Peak level 72.4 %
Extraction speed 3.4 X
Track quality 100.0 %
Copy CRC 0D76E2AF
Track not present in AccurateRip database
Copy OK

Track 10

Filename H:\Users\astarte\03. POST\atelier schola cantorum 6\10 Magyar Etüdök III.wav

Pre-gap length 0:00:01.29

Peak level 56.7 %
Extraction speed 3.5 X
Track quality 100.0 %
Copy CRC 24B04291
Track not present in AccurateRip database
Copy OK

Track 11

Filename H:\Users\astarte\03. POST\atelier schola cantorum 6\11 Die Nachtigall.wav

Pre-gap length 0:00:02.66

Peak level 94.0 %
Extraction speed 3.8 X
Track quality 100.0 %
Copy CRC FFA6A680
Track not present in AccurateRip database
Copy OK

Track 12

Filename H:\Users\astarte\03. POST\atelier schola cantorum 6\12 Ich bin der Welt abhanden gekommen.wav

Pre-gap length 0:00:05.20

Suspicious position 0:04:46
Suspicious position 0:04:48
Suspicious position 0:04:50 - 0:04:54
Suspicious position 0:04:56 - 0:04:58
Suspicious position 0:05:01 - 0:05:02
Suspicious position 0:05:05
Suspicious position 0:05:10 - 0:05:11
Suspicious position 0:05:14 - 0:05:21
Suspicious position 0:05:27

Peak level 56.1 %
Extraction speed 0.0 X
Track quality 96.5 %
Copy CRC 3EF83F4A
Track not present in AccurateRip database
Copy finished

None of the tracks are present in the AccurateRip database

There were errors

End of status report

==== Log checksum 2DD52E05D2A33218DE39D571D563204688B8535B1A32443AFA972E2F45C6C9AA ====
Download link:
Links are Interchangeable - Single Extraction - Premium is support resumable

uploaded


Rapidgator.net

Site BBcode/HTML Code:
Dear visitor, you went to the site as unregistered user.
We recommend you Sign up or Login to website under your name.
Information
Would you like to leave your comment? Please Login to your account to leave comments. Don't have an account? You can create a free account now.

Tag Cloud

archive of news

^
 
free html hit counter