» » Flairck - The Emigrant (1989)
uploaded.to



Information of news
11-10-2015, 13:29

Flairck - The Emigrant (1989)

Category: Music

Flairck - The Emigrant (1989)

Flairck - The Emigrant (1989)
EAC Rip | APE (image & cue & log) | 323 MB | MP3 CBR 320 kbps | 138 MB | Scans | 49:02
Genre: Progressive Folk / Progressive Rock / Chamber Rock | Country: Netherlands | Label: Galaxis | GLX 9100

FLAIRCK are a Dutch ensemble formed by Erik Visser, an Indonesian-born acoustic instrumentalist with classical training and a strong interest in many forms of world music. The band released their first studio album 'Variaties Op Een Dame' (Variations on a Lady) in 1978, and has issued more than two dozen studio, live and compilation releases since then.The band incorporates a number of world influences in their work, which has been described as chamber music but which actually features many styles including classical, folk, jazz and blues, as well as Eastern European and Celtic traditional music. The band primarily performs original compositions, and has worked with a number of renowned world music artists including Georges Moustaki, Nelleke Burg and Dimitri van Toren. The group has also recorded and performed with numerous symphony orchestras and has contributed scores for film, stage and ballet.
Visser and the other band members have a strong interest in obscure and exotic acoustic instruments, and have amassed a collection of more than 150 wind, string and percussion instruments, many of which are used in their studio recordings and live performances.

The band celebrated their 25th anniversary in 2002 with the release of a multi-disciplined DVD dedicated to the Dutch painter Hieronymus Bosch. The video features original scores by the band as well acrobatics, detailed views of Bosch's work and interviews of various band members. Visser took advantage of a hiatus by the band in 2003 to release a solo work entitled 'One Man Parade'.

FLAIRCK are a classic example of a progressive musical collective with wide-ranging influences and a constantly evolving sound. They are a logical and welcome addition to the ProgArchives.
Tracklist:

1. Sofia (bonus track, 7 inch remix) (3:22)
2. The Wooden Wedding (3:47)
3. Andante Poco A Poco Presto Ma Non Troppo (6:03)
4. Syldavian Waltz (4:08)
5. New Dutch Dance Music (3:40)
6. The Milkman (2:42)
7. The Hunt (3:43)
8. The Flemish Hangover (6:15)
9. The Emigrant (4:00)
10. The Toll (2:27)
11. The Decennium March (3:07)
12. Sofia (bonus track, 12 inch remix) (5:48)

Exact Audio Copy V0.99 prebeta 4 from 23. January 2008

EAC extraction logfile from 20. October 2008, 22:33

Flairck / The Emigrant

Used drive : TSSTcorpCD/DVDW SH-S182D Adapter: 1 ID: 0

Read mode : Secure
Utilize accurate stream : Yes
Defeat audio cache : Yes
Make use of C2 pointers : No

Read offset correction : 12
Overread into Lead-In and Lead-Out : No
Fill up missing offset samples with silence : Yes
Delete leading and trailing silent blocks : No
Null samples used in CRC calculations : Yes
Used interface : Installed external ASPI interface

Used output format : Monkey's Audio Lossless Encoder
Selected bitrate : Normal Lossless Compression
Quality : High
Add ID3 tag : Yes
Command line compressor : C:\Archivos de programa\Monkey's Audio\MAC.exe

TOC of the extracted CD

Track | Start | Length | Start sector | End sector
---------------------------------------------------------
1 | 0:00.33 | 3:21.50 | 33 | 15157
2 | 3:22.08 | 3:46.72 | 15158 | 32179
3 | 7:09.05 | 6:03.10 | 32180 | 59414
4 | 13:12.15 | 4:08.25 | 59415 | 78039
5 | 17:20.40 | 3:40.35 | 78040 | 94574
6 | 21:01.00 | 2:41.63 | 94575 | 106712
7 | 23:42.63 | 3:42.60 | 106713 | 123422
8 | 27:25.48 | 6:14.47 | 123423 | 151519
9 | 33:40.20 | 4:00.35 | 151520 | 169554
10 | 37:40.55 | 2:27.00 | 169555 | 180579
11 | 40:07.55 | 3:07.28 | 180580 | 194632
12 | 43:15.08 | 5:47.67 | 194633 | 220724

Range status and errors

Selected range

Filename C:\Documents and Settings\Administrador\Mis documentos\Gazu\Discos para subir\Flairck - The Emigrant\Flairck - The Emigrant.wav

Peak level 100.0 %
Range quality 100.0 %
Test CRC ABC3C01B
Copy CRC ABC3C01B
Copy OK

No errors occurred

End of status report

Personnel

-Sylvia Houtzager - viool, altviool, harp, accordeon, amadinda
-Peter Weekers - dwarsfluit, basfluit, piccolo, panfluiten, doedelzak, steelwhistle, amadinda
-Erik Visser - 6 & 12 s. gitaren, resonantie gitaar, bouzouki, banjo, charangi, hammond orgel, spinet, anklung
-Stan Stolk - contrabas
m.m.v.
-Roland Stolk - marimba, klokkenspel, xylofoon, logdrums, toms, grote trom, klein slagwerk
Strijkkwartet:
-Sylvia Houtzager - viool,
-Rob Zwueste - viool,
-Michael Smith - altviool,
-Wout van Wilgenburg - cello.
Download link:
Links are Interchangeable - Single Extraction - Premium is support resumable

uploaded


Rapidgator.net

Site BBcode/HTML Code:
Dear visitor, you went to the site as unregistered user.
We recommend you Sign up or Login to website under your name.
Information
Would you like to leave your comment? Please Login to your account to leave comments. Don't have an account? You can create a free account now.

Tag Cloud

archive of news

^
 
free html hit counter