» » » Jack Thammarat - The Song Box Set (2015)
uploaded.to



Information of news
14-10-2015, 15:25

Jack Thammarat - The Song Box Set (2015)

Category: Tutorials / Other

Jack Thammarat - The Song Box Set (2015)

Jack Thammarat - The Song Box Set
WEBRip | English | MP4 + MP3 jam tracks + PDF tabs | 1280 x 720 | AVC ~2987 Kbps | 25 fps
AAC | 320 Kbps | 44.1 KHz | 2 channels | ~30 minutes | 1.75 GB
Genre: eLearning Video / Guitar lesson

Buy Jack’s first 5 single jamtrack packages in a one purchase and SAVE! Includes On the Way, Falling in Love Again, Morning Jam, Tokyo Trip and Mr Frontman.
WHAT YOU GET:
All 5 single track packages including:
Solo tracks in MP3
Backing tracks in MP3
Video performances in MP4
Complete TAB and notation in PDF and Powertab formats

General
Complete name : jt_morningjam_vid.mp4
Format : MPEG-4
Format profile : Base Media / Version 2
Codec ID : mp42
File size : 52.2 MiB
Duration : 2mn 12s
Overall bit rate : 3 307 Kbps
Encoded date : UTC 2011-06-04 13:04:06
Tagged date : UTC 2011-06-04 13:04:07

Video
ID : 2
Format : AVC
Format/Info : Advanced Video Codec
Format profile : [email protected]
Format settings, CABAC : No
Format settings, ReFrames : 2 frames
Codec ID : avc1
Codec ID/Info : Advanced Video Coding
Duration : 2mn 12s
Bit rate : 2 987 Kbps
Width : 1 280 pixels
Height : 720 pixels
Display aspect ratio : 16:9
Frame rate mode : Constant
Frame rate : 25.000 fps
Color space : YUV
Chroma subsampling : 4:2:0
Bit depth : 8 bits
Scan type : Progressive
Bits/(Pixel*Frame) : 0.130
Stream size : 47.1 MiB (90%)
Language : English
Encoded date : UTC 2011-06-04 13:03:56
Tagged date : UTC 2011-06-04 13:04:07
Color primaries : BT.709-5, BT.1361, IEC 61966-2-4, SMPTE RP177
Transfer characteristics : BT.709-5, BT.1361
Matrix coefficients : BT.709-5, BT.1361, IEC 61966-2-4 709, SMPTE RP177

Audio
ID : 1
Format : AAC
Format/Info : Advanced Audio Codec
Format profile : LC
Codec ID : 40
Duration : 2mn 12s
Bit rate mode : Constant
Bit rate : 320 Kbps
Channel(s) : 2 channels
Channel positions : Front: L R
Sampling rate : 44.1 KHz
Compression mode : Lossy
Stream size : 5.00 MiB (10%)
Language : English
Encoded date : UTC 2011-06-04 13:03:56
Tagged date : UTC 2011-06-04 13:04:07

Screenshots

Jack Thammarat - The Song Box Set (2015)

Jack Thammarat - The Song Box Set (2015)

Jack Thammarat - The Song Box Set (2015)


Download link:
Links are Interchangeable - Single Extraction - Premium is support resumable

uploaded


Rapidgator.net

Site BBcode/HTML Code:
Dear visitor, you went to the site as unregistered user.
We recommend you Sign up or Login to website under your name.
Information
Would you like to leave your comment? Please Login to your account to leave comments. Don't have an account? You can create a free account now.

Tag Cloud

archive of news

^
 
free html hit counter