» » » Dolf De Roos - Real Estate Investors College

Information of news
14-10-2015, 16:53

Dolf De Roos - Real Estate Investors College

Category: Tutorials / Other

Dolf De Roos - Real Estate Investors College

Dolf De Roos - Real Estate Investors College
6xDVDRip | English | AVI | 360 x 240 | XviD ~182 kbps | 29.970 fps
MP3 | 192 Kbps | 44.1 KHz | 2 channels | ~8 hours | 1.32 GB
Genre: eLearning Video / Business, Real Estate, Property Develop

The DVD Success Series is a premium line of personal productivity recordings featuring acclaimed content from renowned motivators and success coaches, and designed for people on the move.
Ever wished you had the time for a one-on-one, in-person seminar led by a world authority on real estate prosperity? With Real Estate Investor's College on DVD, property investment guru Dolf de Roos demonstrates field-tested strategies and insider techniques designed for novice and seasoned real estate investors alike. This six-DVD suite offers an in-depth video compendium of how-to tips for creating and perpetuating property income, then allows you to sit in on a series of international question-and-answer sessions featuring specific real estate queries from program participants. Dolf de Roos' Real Estate Investor's College on DVD: the best seat in the house, providing a private audience with one of the world's premier investment authorities.

6 dynamic video seminars presented by Dolf de Roos
- Real Estate Riches (1 DVD): Dolf de Roos' comprehensive, critically acclaimed presentation originally broadcast on pay-per-view, offering field-tested techniques for creating wealth through property. - Discussions with Dolf (5 DVDs): A unique global forum offering real-life answers to specific real estate queries posed by program participants from New York to New Zealand, providing continuing real estate education in an illuminating Q&A format.

Complete name : Seminar.avi
Format : AVI
Format/Info : Audio Video Interleave
File size : 248 MiB
Duration : 1h 29mn
Overall bit rate : 386 Kbps

ID : 0
Format : MPEG-4 Visual
Format profile : Advanced [email protected]
Format settings, BVOP : 2
Format settings, QPel : No
Format settings, GMC : No warppoints
Format settings, Matrix : Default (H.263)
Muxing mode : Packed bitstream
Codec ID : XVID
Codec ID/Hint : XviD
Duration : 1h 29mn
Bit rate : 182 Kbps
Width : 360 pixels
Height : 240 pixels
Display aspect ratio : 3:2
Frame rate : 29.970 fps
Color space : YUV
Chroma subsampling : 4:2:0
Bit depth : 8 bits
Scan type : Progressive
Compression mode : Lossy
Bits/(Pixel*Frame) : 0.070
Stream size : 117 MiB (47%)
Writing library : XviD 1.1.0 (UTC 2005-11-22)

ID : 1
Format : MPEG Audio
Format version : Version 1
Format profile : Layer 3
Mode : Joint stereo
Mode extension : MS Stereo
Emphasis : 50/15ms
Codec ID : 55
Codec ID/Hint : MP3
Duration : 1h 29mn
Bit rate mode : Constant
Bit rate : 192 Kbps
Channel(s) : 2 channels
Sampling rate : 44.1 KHz
Compression mode : Lossy
Delay relative to video : 26ms
Stream size : 123 MiB (50%)
Alignment : Split accross interleaves
Interleave, duration : 33 ms (1.00 video frame)
Title : Audio Stream
Writing library : LAME3.97 (beta)


Dolf De Roos - Real Estate Investors College

Dolf De Roos - Real Estate Investors College

Dolf De Roos - Real Estate Investors College

Dolf De Roos - Real Estate Investors College

Download link:
Links are Interchangeable - Single Extraction - Premium is support resumable



Site BBcode/HTML Code:
Dear visitor, you went to the site as unregistered user.
We recommend you Sign up or Login to website under your name.
Would you like to leave your comment? Please Login to your account to leave comments. Don't have an account? You can create a free account now.

Tag Cloud

archive of news

free html hit counter