» » Banco Del Mutuo Soccorso - Io Sono Nato Libero (1973)
uploaded.to



Information of news
14-10-2015, 17:01

Banco Del Mutuo Soccorso - Io Sono Nato Libero (1973)

Category: Music

Banco Del Mutuo Soccorso - Io Sono Nato Libero (1973)

Banco Del Mutuo Soccorso - Io Sono Nato Libero (1973)
Rock | 1cd | EAC Rip | Flac + Cue + Log | covers
BMG, BVCP 20010 Blu-Spec CD | rem: 2009 | 295Mb

Banco del Mutuo Soccorso's third LP, Io Sono Nato Libero, was released only a few months after the impressive Darwin!, and featured the same lineup (brothers Vittorio and Gianni Nocenzi on keyboards, Rodolfo Maltese on guitar, Pierluigi Calderoni on drums, Renato d'Angelo on bass, and Francesco Di Giacomo on vocals). It yielded one classic track, "Non Mi Rompete," a beautiful Italian ballad that would be part of the band's set list for the rest of its life.
Another important track is "Traccia II," which develops the musical idea found at the end of the 1971 LP Banco del Mutuo Soccorso. Music history may have preserved these two pieces, but the real point of interest on Io Sono Nato Libero is the 15-minute opus "Canto Nomade per un Prigioniero Politico," a complex and very moving piece (the title translates to "Nomad Song for a Political Prisoner"). Di Giacomo feels so involved in the lyrics that his voice is always on the verge of breaking up. The song contains a strange section of percussion overdubs in the middle, which sadly alters its cohesion, but otherwise it remains one of the group's strong compositions from its early days. This album was eclipsed by the cult status Darwin! achieved, but it should not be overlooked. It possesses all the elements that made Banco del Mutuo Soccorso such a unique band, embodying everything Italian progressive rock could be. ~Allmusic

Track listing
01. Canto Nomade Per Un Prigioniero Politico (15:48)
02. Non Mi Rompete (5:05)
03. La Citta Sottile (7:14)
04. Dopo... Niente E Piu Lo Stesso (9:56)
05. Traccia II (2:38)
~ (40:41)

Personnel
- Vittorio Nocenzi / organ, harpischord, synths
- Gianni Nocenzi / piano, keyboards
- Marcello Todaro / electric and acoustic guitars
- Renato D'Angelo / bass, acoustic guitar
- Pier Luigi Calderoni / drums, percussion
- Francesco Di Giacomo / vocals

Exact Audio Copy V1.0 beta 1 from 15. November 2010

EAC extraction logfile from 9. January 2011, 19:12

Banco Del Mutuo Soccorso / Io Sono Nato Libero (2009 Blu-Spec CD)

Used drive : PLEXTOR CD-R PREMIUM Adapter: 2 ID: 0

Read mode : Secure
Utilize accurate stream : Yes
Defeat audio cache : Yes
Make use of C2 pointers : No

Read offset correction : 30
Overread into Lead-In and Lead-Out : Yes
Fill up missing offset samples with silence : Yes
Delete leading and trailing silent blocks : No
Null samples used in CRC calculations : Yes
Used interface : Native Win32 interface for Win NT & 2000
Gap handling : Appended to previous track

Used output format : User Defined Encoder
Selected bitrate : 896 kBit/s
Quality : High
Add ID3 tag : No
Command line compressor : E:\Program Files (x86)\Exact Audio Copy\Flac\flac.exe
Additional command line options : -8 -V -T "ARTIST=%a" -T "TITLE=%t" -T "ALBUM=%g" -T "DATE=%y" -T "TRACKNUMBER=%n" -T "TOTALTRACKS=%x" -T "GENRE=%m" -T "ALBUMARTIST=%v" -T "ALBUM ARTIST=%v" -T "COMMENT=EAC Secure Mode, Test & Copy, AccurateRip, FLAC -8" %s

TOC of the extracted CD

Track | Start | Length | Start sector | End sector
---------------------------------------------------------
1 | 0:00.00 | 15:47.42 | 0 | 71066
2 | 15:47.42 | 5:05.15 | 71067 | 93956
3 | 20:52.57 | 7:13.65 | 93957 | 126496
4 | 28:06.47 | 9:55.48 | 126497 | 171169
5 | 38:02.20 | 2:38.35 | 171170 | 183054

Track 1

Filename R:\EAC Rips\01 - Canto Nomade Per Un Prigioniero Politico.wav

Pre-gap length 0:00:02.00

Peak level 99.8 %
Extraction speed 6.3 X
Track quality 100.0 %
Test CRC A638EDDA
Copy CRC A638EDDA
Cannot be verified as accurate (confidence 4) E8DA8F1, AccurateRip returned [1A3D4D89]
Copy OK

Track 2

Filename R:\EAC Rips\02 - Non Mi Rompete.wav

Pre-gap length 0:00:01.89

Peak level 99.9 %
Extraction speed 7.0 X
Track quality 100.0 %
Test CRC F7DF2D46
Copy CRC F7DF2D46
Cannot be verified as accurate (confidence 5) [6085AD8C], AccurateRip returned [C7C1FDF1]
Copy OK

Track 3

Filename R:\EAC Rips\03 - La Citta' Sottile.wav

Pre-gap length 0:00:02.05

Peak level 99.2 %
Extraction speed 7.8 X
Track quality 100.0 %
Test CRC 7C4F88BB
Copy CRC 7C4F88BB
Cannot be verified as accurate (confidence 4) [CBB2911B], AccurateRip returned [C13F767E]
Copy OK

Track 4

Filename R:\EAC Rips\04 - Dopo... Niente E' Piu' Lo Stesso.wav

Pre-gap length 0:00:01.22

Peak level 98.9 %
Extraction speed 8.8 X
Track quality 100.0 %
Test CRC DB5CD7F8
Copy CRC DB5CD7F8
Cannot be verified as accurate (confidence 4) FB4310E, AccurateRip returned F2C5118
Copy OK

Track 5

Filename R:\EAC Rips\05 - Traccia II.wav

Peak level 99.7 %
Extraction speed 9.8 X
Track quality 100.0 %
Test CRC AE94E01C
Copy CRC AE94E01C
Cannot be verified as accurate (confidence 4) [1FA2A8AA], AccurateRip returned [120CCF9B]
Copy OK

No tracks could be verified as accurate
You may have a different pressing from the one(s) in the database

No errors occurred

End of status report

==== Log checksum AF888D851F95742EEE0B6BB3C208F14055B833F4B661DE952F8F702764C555B6 ====

[CUETools log; Date: 2015.10.12. 8:18:35; Version: 2.1.5]
[CTDB TOCID: QWf2cGm3XbAudPhtX7kpVZfcfcw-] found.
Track | CTDB Status
1 | (2/2) Accurately ripped
2 | (2/2) Accurately ripped
3 | (2/2) Accurately ripped
4 | (2/2) Accurately ripped
5 | (2/2) Accurately ripped
[AccurateRip ID: 0009da72-002c024e-4b098805] found.
Track [ CRC | V2 ] Status
01 e8da8f1|6178848f (00+02/11) Accurately ripped
02 [6085ad8c|9f578dca] (00+02/12) Accurately ripped
03 [cbb2911b|e7a438a7] (00+02/11) Accurately ripped
04 fb4310e|e58b022a (00+02/11) Accurately ripped
05 [1fa2a8aa|264736b1] (00+02/11) Accurately ripped
Offsetted by 2219:
01 [1a3d4d89] (06/11) Accurately ripped
02 [c7c1fdf1] (07/12) Accurately ripped
03 [c13f767e] (06/11) Accurately ripped
04 f2c5118 (06/11) Accurately ripped
05 [120ccf9b] (06/11) Accurately ripped

Track Peak [ CRC32 ] [W/O NULL] [ LOG ]
-- 99,9 [8E764AAF] [944304A6]
01 99,8 [A638EDDA] [C26FEE50] CRC32
02 99,9 [F7DF2D46] [AEB25C87] CRC32
03 99,2 [7C4F88BB] [D2AB143C] CRC32
04 98,9 [DB5CD7F8] [70D48490] CRC32
05 99,7 [AE94E01C] [2D75174B] CRC32


password: asd

Download link:
Links are Interchangeable - Single Extraction - Premium is support resumable

uploaded


Rapidgator.net

Site BBcode/HTML Code:
Dear visitor, you went to the site as unregistered user.
We recommend you Sign up or Login to website under your name.
Information
Would you like to leave your comment? Please Login to your account to leave comments. Don't have an account? You can create a free account now.

Tag Cloud

archive of news

^
 
free html hit counter