» » » Morgan Strebler and SansMinds - Touched (2015)
uploaded.to



Information of news
19-10-2015, 19:48

Morgan Strebler and SansMinds - Touched (2015)

Category: Tutorials / Other

Morgan Strebler and SansMinds - Touched (2015)

Morgan Strebler and SansMinds - Touched
DVDRip | English | MP4 | 854 x 480 | AVC ~657 kbps | 29.970 fps
AAC | 192 Kbps | 48.0 KHz | 2 channels | 1h 13mn | 459.1 MB
Genre: eLearning Video / Magic tricks, illusion (2015)

Mind and movement, a force that constantly shatters you. What if you can cross the barrier of physical reality? Imagine touching a person without ever laying a finger on them. Touched is a collection of Morgan Strebler's techniques and his approach to the famous Invisible Touch Description. Morgan Strebler shares his secret on real time touches. The spectators have their eyes wide open, staring at their own hand while being 'touched' by invisible force. Various techniques to synchronize spectators' senses and create absolute miracles. Equip yourself with the Touched techniques now and get ready to perform miracles anywhere anytime.
General
Complete name : Touched+by+Morgan+Strebler+1.mp4
Format : MPEG-4
Format profile : Base Media / Version 2
Codec ID : mp42
File size : 244 MiB
Duration : 39mn 54s
Overall bit rate : 855 Kbps

Video
ID : 1
Format : AVC
Format/Info : Advanced Video Codec
Format profile : [email protected]
Format settings, CABAC : No
Format settings, ReFrames : 1 frame
Format settings, GOP : M=1, N=30
Codec ID : avc1
Codec ID/Info : Advanced Video Coding
Duration : 39mn 54s
Source duration : 39mn 54s
Bit rate mode : Variable
Bit rate : 657 Kbps
Width : 854 pixels
Height : 480 pixels
Display aspect ratio : 16:9
Frame rate mode : Constant
Frame rate : 29.970 fps
Color space : YUV
Chroma subsampling : 4:2:0
Bit depth : 8 bits
Scan type : Progressive
Bits/(Pixel*Frame) : 0.053
Stream size : 187 MiB (77%)
Source stream size : 187 MiB

Audio
ID : 2
Format : AAC
Format/Info : Advanced Audio Codec
Format profile : LC
Codec ID : 40
Duration : 39mn 54s
Bit rate mode : Constant
Bit rate : 192 Kbps
Channel(s) : 2 channels
Channel positions : Front: L R
Sampling rate : 48.0 KHz
Compression mode : Lossy
Stream size : 55.7 MiB (23%)

Screenshots

Morgan Strebler and SansMinds - Touched (2015)

Morgan Strebler and SansMinds - Touched (2015)

Morgan Strebler and SansMinds - Touched (2015)


Download link:
Links are Interchangeable - Single Extraction - Premium is support resumable

uploaded


Rapidgator.net

Site BBcode/HTML Code:
Dear visitor, you went to the site as unregistered user.
We recommend you Sign up or Login to website under your name.
Information
Would you like to leave your comment? Please Login to your account to leave comments. Don't have an account? You can create a free account now.

Tag Cloud

archive of news

^
 
free html hit counter