» » Penguin Live Lecture with Juan Tamariz

Information of news
  • Author: BaDshaH
  • Date: 20-10-2015, 08:57
20-10-2015, 08:57

Penguin Live Lecture with Juan Tamariz

Category: Tutorials

"Juan Tamariz is not your typical magician... but you already knew that. He's a deep thinker whose engaging manner conceals his exceptional cleverness. Whenever Juan Tamariz talks card magic, you'll get so much more out of it than a few moves, or tricks. You'll get a masterclass in the art of magic."

It's no wonder he is so respected by professionals who strive to be more than tricksters. So, prepare yourself to listen to every tiny detail.

Juan begins with a seemingly simple piece where two cards combine to become the selected card. But enough about the trick...he'll tell you why he opens his shows with it and how he uses it to establish his character and create a rapport with his audience.

Of course, you'll want to learn an incredible card trick, and Juan Tamariz will not disappoint, as he shares one of his very clean-looking approaches to the oil and water Description, and even repeats it face-up with the colors separating again with no moves. It's a truly beautiful and elegant piece that concludes with entire deck separating, although it has been thoroughly shuffled.

Now we get into the meat of the lecture as Juan explains how magic differs from most performing arts, and how we can strive to make it have more impact.

Make sure you stick with him as he really gets into the depth of his analytic nature and shows you with clear graphs the concept he's explaining.

Then, it's back to the cards as Juan performs a trick with a borrowed deck. I'll warn you... he doesn't explain it, but you're encouraged to think about it.

Next, he shows you his approach to a follow-the-leader style effect with ten red and ten black cards that just won't seem to stay put.

And finally, he finishes with an interactive trick involving the whole audience... and you (if you follow along at home). All you need are any seven cards.

So, get ready to spend some time learning about "more than cards" from the maestro himself, Juan Tamariz, right here at Penguin Live.

Complete name : C:\Users\Антонина\Downloads\Penguin Live - Juan Tamariz.flv
: Flash Video
File size
: 1.70 GiB
: 3h 16mn
Overall bit rate : 1 238 Kbps

: Sorenson Spark
Codec ID
: 2
: 3h 16mn
Bit rate
: 1 165 Kbps
: 640 pixels
: 360 pixels
Display aspect ratio : 16:9
Frame rate mode : Constant
Frame rate
: 29.970 fps
Bit depth
: 8 bits

: 0.169
Stream size
: 1.60 GiB (94%)

: MPEG Audio
Format version : Version 2
Format profile : Layer 3
: Joint stereo
Mode extension : MS Stereo
Codec ID
: 2
Codec ID/Hint : MP3
: 3h 16mn
Bit rate mode : Constant
Bit rate
: 64.0 Kbps
: 2 channels
Sampling rate : 22.05 KHz
Compression mode : Lossy
Stream size
: 96.9 MiB (6%)
Writing library : LAME3.96.1


Penguin Live Lecture with Juan Tamariz

Penguin Live Lecture with Juan Tamariz

Penguin Live Lecture with Juan Tamariz

Penguin Live Lecture with Juan Tamariz

I recommends Buy premimum account for High speed+parallel downloads!




Site BBcode/HTML Code:
Dear visitor, you went to the site as unregistered user.
We recommend you Sign up or Login to website under your name.
Would you like to leave your comment? Please Login to your account to leave comments. Don't have an account? You can create a free account now.

Tag Cloud

archive of news

free html hit counter