» » » Mosaic Damascus with Ed Caffrey
uploaded.to



Information of news
21-10-2015, 10:56

Mosaic Damascus with Ed Caffrey

Category: Tutorials / Other

Mosaic Damascus with Ed Caffrey

Mosaic Damascus with Ed Caffrey
DVD5 | English | VIDEO_TS | 720 x 480 | MPEG2 ~5004 Kbps | 29.970 fps
AC-3 | 192 Kbps | 48.0 KHz | 2 channels | 109 minutes | 4.13 GB
Genre: eLearning Video / Forging

In this DVD, ABS Mastersmith Ed Caffrey will show you some of the most common Mosaic Damascus patterns. The information is designed to be easy to understand, and will allow you to take the "next logical step" towards producing your own Mosaic Damascus. Ed covers how to create a radial pattern, a basket weave pattern, a jelly roll pattern, and how to do an "accordion" fold. This DVD, at almost two hours, also provides a recap of tools, safety, and etching as explained in Basic Bladesmithing (DVD), and, Basic Damascus (DVD). If you're interested in how Mosaic Damascus is produced, this is the DVD for you. Note: This video is for advanced knifemakers and shows methods using a forge and a hydraulic press.
General
Complete name : VTS_04_3.VOB
Format : MPEG-PS
File size : 1 024 MiB
Duration : 27mn 0s
Overall bit rate mode : Variable
Overall bit rate : 5 301 Kbps

Video
ID : 224 (0xE0)
Format : MPEG Video
Format version : Version 2
Format profile : [email protected]
Format settings, BVOP : Yes
Format settings, Matrix : Default
Format settings, GOP : M=3, N=15
Duration : 26mn 59s
Bit rate mode : Variable
Bit rate : 5 004 Kbps
Maximum bit rate : 8 500 Kbps
Width : 720 pixels
Height : 480 pixels
Display aspect ratio : 4:3
Frame rate : 29.970 fps
Standard : NTSC
Color space : YUV
Chroma subsampling : 4:2:0
Bit depth : 8 bits
Scan type : Interlaced
Scan order : Bottom Field First
Compression mode : Lossy
Bits/(Pixel*Frame) : 0.483
Stream size : 966 MiB (94%)

Audio
ID : 189 (0xBD)-128 (0x80)
Format : AC-3
Format/Info : Audio Coding 3
Mode extension : CM (complete main)
Muxing mode : DVD-Video
Duration : 27mn 0s
Bit rate mode : Constant
Bit rate : 192 Kbps
Channel(s) : 2 channels
Channel positions : Front: L R
Sampling rate : 48.0 KHz
Bit depth : 16 bits
Compression mode Woodworking, Home Repairs : Lossy
Delay relative to video : -662ms
Stream size : 37.1 MiB (4%)

Menu

Screenshots

Mosaic Damascus with Ed Caffrey

Mosaic Damascus with Ed Caffrey

Mosaic Damascus with Ed Caffrey

Mosaic Damascus with Ed Caffrey

Mosaic Damascus with Ed Caffrey

Mosaic Damascus with Ed Caffrey


Download link:
Links are Interchangeable - Single Extraction - Premium is support resumable

uploaded


Rapidgator.net

Site BBcode/HTML Code:
Dear visitor, you went to the site as unregistered user.
We recommend you Sign up or Login to website under your name.
Information
Would you like to leave your comment? Please Login to your account to leave comments. Don't have an account? You can create a free account now.

Tag Cloud

archive of news

^
 
free html hit counter