» » Allan Holdsworth - I.O.U. (1982) {Cream}
uploaded.to



Information of news
22-10-2015, 07:35

Allan Holdsworth - I.O.U. (1982) {Cream}

Category: Music

Allan Holdsworth - I.O.U. (1982) {Cream}

Allan Holdsworth - I.O.U. (1982) {Cream}
EAC 0.99pb4 | FLAC Image | Cue+Log | Full Scans 300dpi | 267MB + 5% Recovery
Genre: Fusion

After the train-wreck disaster of Holdsworth's first solo release, the infamous Velvet Darkness, it wasn't until three years later that he reconsidered doing a real solo release versus the earlier ripoff of an authorized studio mishmash product he suffered. So in 1979 he recorded I.O.U. on a wing and a prayer and loans (ergo, an IOU recording project). With his very successful stints with other groups in the intervening time period, such as UK and Bruford, Holdsworth's guitar prowess and name were clearly on the map. Holdsworth now needed to be the leader he clearly was and thus release an official solo record.
Track List
01. The Things You See (When You Haven't Got Your Gun) 5:52.68
02. Where Is One 5:38.17
03. Checking Out 3:39.33
04. Letters Of Marque 7:02.52
05. Out From Under 3:34.35
06. Temporary Fault 3:17.58
07. Shallow Sea 6:04.70
08. White Line 4:43.02

musicians
Allan Holdsworth - guitar
Paul Williams - vocals
Gary Husband - drums
Paul Carmichael - bass

Produced by Allan Holdsworth

Exact Audio Copy V0.99 prebeta 4 from 23. January 2008

EAC extraction logfile from 20. February 2008, 19:03

Allan Holdsworth / I.O.U.

Used drive : PLEXTOR CD-R PX-W5224A Adapter: 1 ID: 1

Read mode : Secure
Utilize accurate stream : Yes
Defeat audio cache : Yes
Make use of C2 pointers : No

Read offset correction : 30
Overread into Lead-In and Lead-Out : Yes
Fill up missing offset samples with silence : Yes
Delete leading and trailing silent blocks : No
Null samples used in CRC calculations : Yes
Used interface : Installed external ASPI interface

Used output format : Internal WAV Routines
Sample format : 44.100 Hz; 16 Bit; Stereo

TOC of the extracted CD

Track | Start | Length | Start sector | End sector
---------------------------------------------------------
1 | 0:00.32 | 5:52.68 | 32 | 26499
2 | 5:53.25 | 5:38.17 | 26500 | 51866
3 | 11:31.42 | 3:39.33 | 51867 | 68324
4 | 15:11.00 | 7:02.52 | 68325 | 100026
5 | 22:13.52 | 3:34.35 | 100027 | 116111
6 | 25:48.12 | 3:17.58 | 116112 | 130944
7 | 29:05.70 | 6:04.70 | 130945 | 158314
8 | 35:10.65 | 4:43.02 | 158315 | 179541

Range status and errors

Selected range

Filename C:\DAE\Allan Holdsworth - I.O.U\Allan Holdsworth - IOU.wav

Peak level 99.2 %
Range quality 100.0 %
Test CRC A65264C4
Copy CRC A65264C4
Copy OK

No errors occurred

End of status report

--------------------------------------------------------------------------------
Analyzed: Allan Holdsworth / I.O.U.
--------------------------------------------------------------------------------

DR Peak RMS Duration Track
--------------------------------------------------------------------------------
DR12 -0.54 dB -14.47 dB 5:53 01-The Things You See (When You Haven't Got Your Gun)
DR12 -0.48 dB -14.20 dB 5:38 02-Where Is One
DR12 -0.64 dB -14.13 dB 3:39 03-Checking Out
DR12 -0.94 dB -15.67 dB 7:03 04-Letters Of Marque
DR12 -0.07 dB -13.70 dB 3:34 05-Out From Under
DR10 -0.67 dB -12.79 dB 3:18 06-Temporary Fault
DR13 -0.22 dB -16.85 dB 6:05 07-Shallow Sea
DR12 -0.07 dB -14.01 dB 4:43 08-White Line
--------------------------------------------------------------------------------

Number of tracks: 8
Official DR value: DR12

Samplerate: 44100 Hz
Channels: 2
Bits per sample: 16
Bitrate: 900 kbps
Codec: FLAC
================================================================================

Allan Holdsworth - I.O.U. (1982) {Cream}

Allan Holdsworth - I.O.U. (1982) {Cream}

Allan Holdsworth - I.O.U. (1982) {Cream}


Download link:
Links are Interchangeable - Single Extraction - Premium is support resumable

uploaded


Rapidgator.net

Site BBcode/HTML Code:
Dear visitor, you went to the site as unregistered user.
We recommend you Sign up or Login to website under your name.
Information
Would you like to leave your comment? Please Login to your account to leave comments. Don't have an account? You can create a free account now.

Tag Cloud

archive of news

^
 
free html hit counter