» » JamTrackCentral - 20 Licks Modern Hybrid Metal with Gianluca Ferro

Information of news
  • Author: BaDshaH
  • Date: 1-11-2015, 09:52
1-11-2015, 09:52

JamTrackCentral - 20 Licks Modern Hybrid Metal with Gianluca Ferro

Category: Tutorials

"JTC is pleased to release this hard-hitting, gritty licks package that will enhance your solos and take your metal playing to brand new heights. Why do you need to learn these licks? Two reasons: Technique, and musical content."

Technique is massively important as it frees your creativity. The goal of achieving a complete and efficient technical ability is to free you from your physical limitations; you want to have enough chops to be able to play anything your mind can conceive of, and learning these licks is going to get you well on your way. Gianluca will challenge and push the outer boundaries of your technical ability using modern approaches to classic metal techniques such as alternate picking, sweep picking, 3 notes per string scales, tapping, hybrid picking and much more.

Musical content is the second reason that you need these licks. Shredding at 750bpm for hours on end is great as a hobby, but unless you can apply it to a musical context, and give the phrases the melodic weight they need to resonate with people, then it's all in vain. Learning these licks and studying them with the slow videos, included TAB and bonus notes, will help you develop your phrasing and melodic approach in a way that will help your solos blend in with the overall musical picture. It's great being in the spotlight, but the goal is to play WITH the track, not over it. Gianluca makes great use of harmonic and melodic devices such as arpeggios, minor pentatonics, dominant pentatonics, phyrgian dominant scales, wide interval lines, complex rhythmic figures and rhythmic displacement to blend in with his musical surroundings and enhance the overall musical experience. All while giving you fresh new soloing ideas that you can learn, master and apply directly to your jams so that when it comes to your time to solo, you've got all the musical and technical chops you need to make an IMPACT.

As ever, we have accurately transcribed every note and included the TAB/notation in the download, full backing tracks, audio solos and track notes.

20 Original Licks
40 Performance Videos (Fast/Slow)
40 Audio MP3 Files (Fast/Slow)
2 Backing Tracks
Extended Jamtrack
Full TAB/Notation
Bonus Lick Notes

Complete name : Lick 5.MP4
: MPEG-4
Format profile : Base Media / Version 2
Codec ID
: mp42
File size
: 3.49 MiB
: 22s 523ms
Overall bit rate mode : Variable
Overall bit rate : 1 299 Kbps
Encoded date : UTC 2015-07-28 10:07:40
Tagged date
: UTC 2015-07-28 10:07:40
: 0
: 22568
: B4A7DD8C7MH1438086572322855
: r7sn-cg07luek.c.youtube.com

ID : 1
: Advanced Video Codec
Format profile : [email protected]
Format settings, CABAC : Yes
Format settings, ReFrames : 1 frame
Format settings, GOP : M=1, N=60
Codec ID
: avc1
Codec ID/Info : Advanced Video Coding
: 22s 522ms
Bit rate
: 1 104 Kbps
Maximum bit rate : 3 307 Kbps
: 1 280 pixels
: 720 pixels
Display aspect ratio : 16:9
Frame rate mode : Constant
Frame rate
: 23.976 fps
Color space
Chroma subsampling

: 4:2:0
Bit depth
: 8 bits
Scan type
: Progressive

: 0.050
Stream size
: 2.96 MiB (85%)
Tagged date
: UTC 2015-07-28 10:07:41

ID : 2
: Advanced Audio Codec
Format profile : LC
Codec ID
: 40
: 22s 523ms
Bit rate mode : Variable
Bit rate
: 192 Kbps
Maximum bit rate : 201 Kbps
: 2 channels
Channel positions: Front: L R
Sampling rate : 44.1 KHz
Compression mode : Lossy
Stream size
: 528 KiB (15%)
: IsoMedia File Produced by Google, 5-11-2011
: English
Encoded date : UTC 2015-07-28 10:07:40
Tagged date
: UTC 2015-07-28 10:07:41


JamTrackCentral - 20 Licks Modern Hybrid Metal with Gianluca Ferro

JamTrackCentral - 20 Licks Modern Hybrid Metal with Gianluca Ferro

JamTrackCentral - 20 Licks Modern Hybrid Metal with Gianluca Ferro

I recommends Buy premimum account for High speed+parallel downloads!





Site BBcode/HTML Code:
Dear visitor, you went to the site as unregistered user.
We recommend you Sign up or Login to website under your name.
Would you like to leave your comment? Please Login to your account to leave comments. Don't have an account? You can create a free account now.

Tag Cloud

archive of news

free html hit counter