» » Carole King - The Carnegie Hall Concert (2010, MFSL # UDSACD 2067)
uploaded.to



Information of news
6-11-2015, 00:23

Carole King - The Carnegie Hall Concert (2010, MFSL # UDSACD 2067)

Category: Music


Carole King - The Carnegie Hall Concert (2010, MFSL # UDSACD 2067)
Carole King - The Carnegie Hall Concert
XLD+LOG+CUE | WV: 359 MB | Artwork | 5% Recovery Info
Label/Cat#: MFSL # UDSACD 2067 | Country/Year: US 2010
Genre: Rock, Pop | Style: Singer/Songwriter

""...I tend to agree that there are several cuts where the mids were a bit loud but maybe MFSL was just being faithful to the original master tape. But this sacd version is clearly superior to the 1996 cd version. To sum up, my purchase of this version is really justified." ~sa-cd.net"

X Lossless Decoder version 20110312 (130.0)

XLD extraction logfile from 2011-03-23 08:05:22 -0700

Carole King / The Carnegie Hall Concert - June 18, 1971 {MFSL}

Used drive : Optiarc DVD RW AD-7261S (revision 1.03)

Ripper mode : XLD Secure Ripper
Disable audio cache : OK for the drive with a cache less than 1375KiB
Make use of C2 pointers : NO
Read offset correction : 48
Max retry count : 100
Gap status : Analyzed, Appended

TOC of the extracted CD
Track | Start | Length | Start sector | End sector
---------------------------------------------------------
1 | 00:00:00 | 03:58:62 | 0 | 17911
2 | 03:58:62 | 02:42:00 | 17912 | 30061
3 | 06:40:62 | 03:33:54 | 30062 | 46090
4 | 10:14:41 | 03:50:19 | 46091 | 63359
5 | 14:04:60 | 03:37:66 | 63360 | 79700
6 | 17:42:51 | 05:37:34 | 79701 | 105009
7 | 23:20:10 | 02:50:67 | 105010 | 117826
8 | 26:11:02 | 04:24:40 | 117827 | 137666
9 | 30:35:42 | 03:16:58 | 137667 | 152424
10 | 33:52:25 | 04:37:45 | 152425 | 173244
11 | 38:29:70 | 04:03:00 | 173245 | 191469
12 | 42:32:70 | 04:38:22 | 191470 | 212341
13 | 47:11:17 | 04:13:54 | 212342 | 231370
14 | 51:24:71 | 04:01:19 | 231371 | 249464
15 | 55:26:15 | 05:22:63 | 249465 | 273677
16 | 60:49:03 | 07:47:33 | 273678 | 308735
17 | 68:36:36 | 04:17:00 | 308736 | 328010

AccurateRip Summary
Disc not found in AccurateRip DB.

All Tracks
Filename : /Volumes/Samsung 2 TB/Carole King - The Carnegie Hall Concert /The Carnegie Hall Concert - June 18, 1971 {MFSL}.flac
Album gain : -4.02 dB
Peak : 0.993134
CRC32 hash (test run) : 896797C4
CRC32 hash : 896797C4
CRC32 hash (skip zero) : FB6221A4
Statistics
Read error : 0
Jitter error (maybe fixed) : 0
Retry sector count : 0
Damaged sector count : 0

Track 01
Pre-gap length : 00:02:00

Track gain : -4.57 dB
Peak : 0.978363
CRC32 hash (test run) : 863E8E09
CRC32 hash : 863E8E09
CRC32 hash (skip zero) : CA946596
AccurateRip signature : 9C78D53A
->Track not present in AccurateRip database.
Statistics
Read error : 0
Jitter error (maybe fixed) : 0
Retry sector count : 0
Damaged sector count : 0

Track 02

Track gain : -3.45 dB
Peak : 0.871429
CRC32 hash (test run) : 99AA7656
CRC32 hash : 99AA7656
CRC32 hash (skip zero) : F5D3225D
AccurateRip signature : 7D609FA5
->Track not present in AccurateRip database.
Statistics
Read error : 0
Jitter error (maybe fixed) : 0
Retry sector count : 0
Damaged sector count : 0

Track 03

Track gain : -5.34 dB
Peak : 0.927826
CRC32 hash (test run) : 12B653D1
CRC32 hash : 12B653D1
CRC32 hash (skip zero) : 32D0CA57
AccurateRip signature : 5C4A5748
->Track not present in AccurateRip database.
Statistics
Read error : 0
Jitter error (maybe fixed) : 0
Retry sector count : 0
Damaged sector count : 0

Track 04

Track gain : -3.06 dB
Peak : 0.973480
CRC32 hash (test run) : 0EB5E628
CRC32 hash : 0EB5E628
CRC32 hash (skip zero) : 5F18C2A2
AccurateRip signature : EB82C894
->Track not present in AccurateRip database.
Statistics
Read error : 0
Jitter error (maybe fixed) : 0
Retry sector count : 0
Damaged sector count : 0

Track 05

Track gain : -3.88 dB
Peak : 0.919159
CRC32 hash (test run) : 089D778F
CRC32 hash : 089D778F
CRC32 hash (skip zero) : 8A73D30D
AccurateRip signature : 00AB91F2
->Track not present in AccurateRip database.
Statistics
Read error : 0
Jitter error (maybe fixed) : 0
Retry sector count : 0
Damaged sector count : 0

Track 06

Track gain : -2.82 dB
Peak : 0.982941
CRC32 hash (test run) : 2146BCB0
CRC32 hash : 2146BCB0
CRC32 hash (skip zero) : 0F8898FA
AccurateRip signature : 62775A55
->Track not present in AccurateRip database.
Statistics
Read error : 0
Jitter error (maybe fixed) : 0
Retry sector count : 0
Damaged sector count : 0

Track 07

Track gain : -3.32 dB
Peak : 0.978790
CRC32 hash (test run) : 4E5C430A
CRC32 hash : 4E5C430A
CRC32 hash (skip zero) : AC8B53DE
AccurateRip signature : 064B55F0
->Track not present in AccurateRip database.
Statistics
Read error : 0
Jitter error (maybe fixed) : 0
Retry sector count : 0
Damaged sector count : 0

Track 08

Track gain : -3.86 dB
Peak : 0.922913
CRC32 hash (test run) : 548977CB
CRC32 hash : 548977CB
CRC32 hash (skip zero) : 2751FD32
AccurateRip signature : FA721391
->Track not present in AccurateRip database.
Statistics
Read error : 0
Jitter error (maybe fixed) : 0
Retry sector count : 0
Damaged sector count : 0

Track 09

Track gain : -3.61 dB
Peak : 0.988983
CRC32 hash (test run) : 289EEA4A
CRC32 hash : 289EEA4A
CRC32 hash (skip zero) : BDDA9332
AccurateRip signature : 9C234E3E
->Track not present in AccurateRip database.
Statistics
Read error : 0
Jitter error (maybe fixed) : 0
Retry sector count : 0
Damaged sector count : 0

Track 10

Track gain : -4.20 dB
Peak : 0.976929
CRC32 hash (test run) : 23D6A6C4
CRC32 hash : 23D6A6C4
CRC32 hash (skip zero) : 218E2BB3
AccurateRip signature : 21538688
->Track not present in AccurateRip database.
Statistics
Read error : 0
Jitter error (maybe fixed) : 0
Retry sector count : 0
Damaged sector count : 0

Track 11

Track gain : -4.48 dB
Peak : 0.972839
CRC32 hash (test run) : 37E7907E
CRC32 hash : 37E7907E
CRC32 hash (skip zero) : A0754FFD
AccurateRip signature : F1514044
->Track not present in AccurateRip database.
Statistics
Read error : 0
Jitter error (maybe fixed) : 0
Retry sector count : 0
Damaged sector count : 0

Track 12

Track gain : -3.08 dB
Peak : 0.721863
CRC32 hash (test run) : 6A316788
CRC32 hash : 6A316788
CRC32 hash (skip zero) : F58520DE
AccurateRip signature : A1486019
->Track not present in AccurateRip database.
Statistics
Read error : 0
Jitter error (maybe fixed) : 0
Retry sector count : 0
Damaged sector count : 0

Track 13

Track gain : -5.72 dB
Peak : 0.844849
CRC32 hash (test run) : 7B5A10C5
CRC32 hash : 7B5A10C5
CRC32 hash (skip zero) : A298B6A5
AccurateRip signature : 35022BBE
->Track not present in AccurateRip database.
Statistics
Read error : 0
Jitter error (maybe fixed) : 0
Retry sector count : 0
Damaged sector count : 0

Track 14

Track gain : -4.89 dB
Peak : 0.929993
CRC32 hash (test run) : 41BB936D
CRC32 hash : 41BB936D
CRC32 hash (skip zero) : 348DF1DB
AccurateRip signature : 1F59EB90
->Track not present in AccurateRip database.
Statistics
Read error : 0
Jitter error (maybe fixed) : 0
Retry sector count : 0
Damaged sector count : 0

Track 15

Track gain : -3.34 dB
Peak : 0.993134
CRC32 hash (test run) : 473035DC
CRC32 hash : 473035DC
CRC32 hash (skip zero) : 03FF2F7F
AccurateRip signature : DD621653
->Track not present in AccurateRip database.
Statistics
Read error : 0
Jitter error (maybe fixed) : 0
Retry sector count : 0
Damaged sector count : 0

Track 16

Track gain : -2.72 dB
Peak : 0.977875
CRC32 hash (test run) : 2F98AEE8
CRC32 hash : 2F98AEE8
CRC32 hash (skip zero) : 90FF8A48
AccurateRip signature : 17F8E818
->Track not present in AccurateRip database.
Statistics
Read error : 0
Jitter error (maybe fixed) : 0
Retry sector count : 0
Damaged sector count : 0

Track 17

Track gain : -4.41 dB
Peak : 0.828979
CRC32 hash (test run) : AF3B6D0E
CRC32 hash : AF3B6D0E
CRC32 hash (skip zero) : BBFBD36C
AccurateRip signature : 466387A3
->Track not present in AccurateRip database.
Statistics
Read error : 0
Jitter error (maybe fixed) : 0
Retry sector count : 0
Damaged sector count : 0
Download link:



Links are Interchangeable - No Password - Single Extraction

uploaded


Rapidgator.net

Site BBcode/HTML Code:
Dear visitor, you went to the site as unregistered user.
We recommend you Sign up or Login to website under your name.
Information
Would you like to leave your comment? Please Login to your account to leave comments. Don't have an account? You can create a free account now.

Tag Cloud

archive of news

^
 
free html hit counter