» » GuitarMasterClass - MetalCore Pak
uploaded.to



Information of news
  • Author: BaDshaH
  • Date: 6-11-2015, 11:18
6-11-2015, 11:18

GuitarMasterClass - MetalCore Pak

Category: Tutorials



"This lesson will help You to work especially on Your right hand. There are tons of fast, palm muted licks with only down strokes at 220 bpm. All is based on some very popular, metalcore concepts. Every note belongs to the C# minor scale but being honest..."


General
Complete name : GuitarMasterClass - Metalcore Chops #1 - Darius Wave\Lesson Videos\Metalcore Chops #1 Lesson.MP4
Format
: MPEG-4
Format profile : Base Media / Version 2
Codec ID
: mp42
File size
: 25.4 MiB
Duration
: 1mn 22s
Overall bit rate mode : Variable
Overall bit rate : 2 579 Kbps
Encoded date : UTC 2013-04-28 20:01:20
Tagged date
: UTC 2013-04-28 20:01:20

Video
ID : 2
Format
: AVC
Format/Info
: Advanced Video Codec
Codec ID
: avc1
Codec ID/Info : Advanced Video Coding
Duration
: 1mn 22s
Bit rate mode : Variable
Bit rate
: 2 446 Kbps
Maximum bit rate : 14.0 Mbps
Width
: 1 280 pixels
Height
: 720 pixels
Display aspect ratio : 16:9
Frame rate mode : Constant
Frame rate
: 25.000 fps
Color space
: YUV
Chroma subsampling

: 4:2:0
Bit depth
: 8 bits
Scan type
: Progressive
Bits/(Pixel*Frame)

: 0.106
Stream size
: 24.1 MiB (95%)
Language
: English
Encoded date : UTC 2013-04-28 20:01:20
Tagged date
: UTC 2013-04-27 20:08:07

Audio
ID : 1
Format
: AAC
Format/Info
: Advanced Audio Codec
Format profile : LC
Codec ID
: 40
Duration
: 1mn 22s
Bit rate mode : Constant
Bit rate
: 128 Kbps
Channel(s)
: 2 channels
Channel positions: Front: L R
Sampling rate : 48.0 KHz
Compression mode : Lossy
Stream size
: 1.26 MiB (5%)
Language
: English
Encoded date : UTC 2013-04-28 20:01:20
Tagged date
: UTC 2013-04-27 20:08:07


Screenshots

GuitarMasterClass - MetalCore Pak

GuitarMasterClass - MetalCore Pak

GuitarMasterClass - MetalCore Pak


I recommends Buy premimum account for High speed+parallel downloads!

Rapidgator




uploaded


Rapidgator.net

Site BBcode/HTML Code:
Dear visitor, you went to the site as unregistered user.
We recommend you Sign up or Login to website under your name.
Information
Would you like to leave your comment? Please Login to your account to leave comments. Don't have an account? You can create a free account now.

Tag Cloud

archive of news

^
 
free html hit counter