» » » Foundations of Drawing: Urban Sketching with Will Kemp (2015)
uploaded.to



Information of news
10-11-2015, 04:13

Foundations of Drawing: Urban Sketching with Will Kemp (2015)

Category: Tutorials / Other

Foundations of Drawing: Urban Sketching with Will Kemp (2015)

Foundations of Drawing: Urban Sketching
WEBRip | MP4 + Project Files | English | 1280 x 720 | AVC ~1011 kbps | 23.976 fps
AAC | 160 Kbps | 48.0 KHz | 2 channels | 03:28:49 | 1.76 GB
Genre: Video Tutorial / Drawing, Design

You don't need to drive out to the country to draw from life. From an artistic point of view, urban settings have just as much appeal. This Foundations of Drawing course shows how observing everyday life can give you an eye-opening appreciation for cities and towns and their surroundings (from the view out of a bus window to a half-built construction site). Will Kemp, founder of the Will Kemp Art School, demonstrates how to create frameworks for successful sketches using freehand vertical lines, perspective, and tonal blocks. Lessons follow a logical progression, from sketching static buildings and monuments to capturing the movement of individual figures and bustling crowds. The course will enable artists to practice their drawing skills and create fast, bold urban sketches with pencils, pens, or watercolors-whatever tools they have on hand.
Topics include:
Choosing your materials
Building structure into your drawing
Sketching architecture
Capturing panoramic views of a city
Drawing people in cafes
Sketching movement
Bringing it all together in a start-to-finish drawing


Content:
Search this course
Search
Expand all | Collapse all
Introduction
2m 17s
Welcome
1m 55s
Using the exercise files
22s
1. Sketching the Everyday
19m 35s
Capturing movement and change in the urban landscape
1m 57s
Pencils, inks, pens, and sketchpads
5m 31s
Watercolor and acrylic marker pens
3m 48s
Urban sketching vs. landscape sketching
3m 16s
The casual observer vs. the epic documentary maker
5m 3s
2. Structure, Mark Making, and Choosing the Right Materials
47m 28s
Thinking in straight lines: One building at a time
7m 58s
Light and shadow
10m 9s
Matching materials and marks to your subject: Pencil sketch
11m 54s
Matching materials and marks to your subject: Pen sketch
5m 54s
Matching materials and marks to your subject: Color
6m 3s
Challenge: How much detail is enough?
1m 21s
Solution: Will sketches a harbor scene
4m 9s
3. Architecture, Perspective, and Making Depth Work
47m 7s
Cityscapes, rooftops, and panoramas
5m 40s
Twilight and nightlight
10m 36s
Early morning light
7m 55s
Capturing a panoramic
5m 18s
Perspective: 1 point and 2 point
5m 11s
Challenge: Sketch realistic windows and doors
1m 30s
Solution: Will sketches a building
10m 57s

General
Complete name : 008 Thinking in straight lines - One building at a time.mp4
Format : MPEG-4
Format profile : Base Media / Version 2
Codec ID : mp42
File size : 67.1 MiB
Duration : 7mn 58s
Overall bit rate mode : Variable
Overall bit rate : 1 177 Kbps
Encoded date : UTC 2015-10-21 16:44:25
Tagged date : UTC 2015-10-21 16:44:25

Video
ID : 1
Format : AVC
Format/Info : Advanced Video Codec
Format profile : [email protected]
Format settings, CABAC : Yes
Format settings, ReFrames : 5 frames
Codec ID : avc1
Codec ID/Info : Advanced Video Coding
Duration : 7mn 58s
Bit rate mode : Variable
Bit rate : 1 011 Kbps
Maximum bit rate : 1 000 Kbps
Width : 1 280 pixels
Height : 720 pixels
Display aspect ratio : 16:9
Frame rate mode : Constant
Frame rate : 23.976 fps
Color space : YUV
Chroma subsampling : 4:2:0
Bit depth : 8 bits
Scan type : Progressive
Bits/(Pixel*Frame) : 0.046
Stream size : 57.7 MiB (86%)
Title : Telestream Inc. Dib Library - ReleaseVantage 2014.59.138974
Writing library : x264 core 129
Encoding settings : cabac=1 / ref=5 / deblock=1:0:0 / analyse=0x1:0x111 / me=hex / subme=7 / psy=1 / psy_rd=1.00:0.00 / mixed_ref=1 / me_range=16 / chroma_me=1 / trellis=1 / 8x8dct=0 / cqm=0 / deadzone=21,11 / fast_pskip=1 / chroma_qp_offset=-2 / threads=10 / lookahead_threads=1 / sliced_threads=0 / nr=0 / decimate=1 / interlaced=0 / bluray_compat=0 / constrained_intra=0 / bframes=1 / b_pyramid=0 / b_adapt=1 / b_bias=0 / direct=1 / weightb=1 / open_gop=0 / weightp=2 / keyint=240 / keyint_min=23 / scenecut=40 / intra_refresh=0 / rc_lookahead=40 / rc=crf / mbtree=1 / crf=22.0 / qcomp=0.60 / qpmin=0 / qpmax=69 / qpstep=4 / vbv_maxrate=1000 / vbv_bufsize=14900 / crf_max=0.0 / nal_hrd=vbr / ip_ratio=3.00 / aq=1:1.00
Language : English
Encoded date : UTC 2015-10-21 16:44:25
Tagged date : UTC 2015-10-21 16:44:25

Audio
ID : 2
Format : AAC
Format/Info : Advanced Audio Codec
Format profile : LC
Codec ID : 40
Duration : 7mn 58s
Bit rate mode : Constant
Bit rate : 160 Kbps
Nominal bit rate : 128 Kbps
Channel(s) : 2 channels
Channel positions : Front: L R
Sampling rate : 48.0 KHz
Compression mode : Lossy
Stream size : 9.13 MiB (14%)
Title : Telestream Inc. Dib Library - ReleaseVantage 2014.59.138974
Language : English
Encoded date : UTC 2015-10-21 16:44:25
Tagged date : UTC 2015-10-21 16:44:25

Screenshots

Foundations of Drawing: Urban Sketching with Will Kemp (2015)

Foundations of Drawing: Urban Sketching with Will Kemp (2015)

Foundations of Drawing: Urban Sketching with Will Kemp (2015)


Download link:
Links are Interchangeable - Single Extraction - Premium is support resumable

uploaded


Rapidgator.net

Site BBcode/HTML Code:
Dear visitor, you went to the site as unregistered user.
We recommend you Sign up or Login to website under your name.
Information
Would you like to leave your comment? Please Login to your account to leave comments. Don't have an account? You can create a free account now.

Tag Cloud

archive of news

^
 
free html hit counter