» » Joe Newman Quintet - ...At Count Basie's (1961)
uploaded.to



Information of news
18-11-2015, 00:11

Joe Newman Quintet - ...At Count Basie's (1961)

Category: Music

Joe Newman Quintet - ...At Count Basie's (1961)

Joe Newman Quintet - ...At Count Basie's (1961)
EAC Rip | FLAC with CUE and log | scans | 253 mb
MP3 CBR 320kbps | RAR | 93 mb
Genre: jazz

Joe Newman Quintet At Count Basie's is the 1961 album by the Joe Newman Quintet. Originally released by Mercury, this CD was released by the Verve Music Group on on 12 April, 2005.
"Count Basie trumpeter, Joe Newman, steps out front to lead his own quintet on this 4.5 star great live session. This is a much welcomed reissue from Verve (Mercury) since the wonderful Newman released so few albums as a headliner.

This cd features four standards and two fine Newman originals. The playing is consistent and cohesive throughout. There's a definite joyfulness in Newman's playing, from his muted musings on 'Love Is Here To Stay' to his fiery open blowing on 'Midgets', he was just glad to be there. His tone is not as brassy as with Basie and is adjusted perfectly for this setting.

Oliver Nelson is in fine form on tenor. An underappreciated player, Nelson's future reputation as a composer and arranger seems to have overshadowed his playing skills which more than held their own with his contemporaries. He especially shines on a short, bluesy solo on Newman's own 'Wednesday's Blues'.

Drummer Ed Shaughnessy, probably best known for his 29 years with Johnny Carson and The Tonight Show Band, stands out as he opens the set with his driving rhythms on 'Caravan' to his subtle brushwork on 'Please Send Me Someone To Love'. Many of us who grew up with Carson probably didn't appreciated at the time just how great this house band was. If you ever have the chance, check out Shaughnessy, Doc Severinson and Tommy Newsome playing 'Here's That Rainy Day' in tribute to Johnny, his favorite tune, on Late Night with David Letterman. A truly moving, unself-conscious musical moment in television history.

And let's not forget the solid playing throughout from Lloyd Mayers on piano and Art Davis on bass. Kudos.

The ambient chatter and clinking of glassware heard on some cuts can either be distracting or accepted as the authentic feel of a live, intimate club atmosphere. It's the listener's perspective. I'll take the latter as the era of seeing this many great musicians playing at this caliber in a small club may be just about gone forever. But you'll always be able to savor this fantastic 1961 session. It's not to be missed."


1. Caravan
2. Love Is Here To Stay
3. Someone To Love
4. The Midgets
5. On Green Dolphin Street
6. Wednesday's Blues

---
Joe Newman-trumpet
Oliver Nelson-tenor saxophone
Lloyd Mayers-piano
Art Davis-bass guitar
Ed Shaughnessy-drums

HI-FInformation
This album was recorded monaurally and in stereo at Count Basie's, New York. Instruments and mikes were set-up as follows: (Right) Piano-RCA 77; Bass - EV 667; Sax-RCA 44. (Left) Trumpet-RCA 44 and drums-EV 667. The session was recorded on Ampex tape recorders at a speed of 15 inches per second.
Quincy Jones
Mercury Musical Director


CD mastered by Bob Irwin and Jayme Pieruzzi at Sundazed Studios, Coxsackie, NY

EAC extraction logfile from 12. September 2006, 15:46 for CD
Joe Newman Quintet / Joe Newman Quintet At Count Basies

Used drive : LITE-ON DVDRW SOHW-1633S Adapter: 0 ID: 0
Read mode : Secure with NO C2, accurate stream, disable cache
Read offset correction : 12
Overread into Lead-In and Lead-Out : No

Used output format : Internal WAV Routines
44.100 Hz; 16 Bit; Stereo

Other options :
Fill up missing offset samples with silence : Yes
Delete leading and trailing silent blocks : No
Installed external ASPI interface

Track 1
Filename D:\FLAC\Joe Newman Quintet - Joe Newman Quintet At Count Basie's (1961) [FLAC]\01 - Caravan.wav

Pre-gap length 0:00:02.00

Peak level 79.2 %
Track quality 100.0 %
Test CRC 81D423F4
Copy CRC 81D423F4
Copy OK

Track 2
Filename D:\FLAC\Joe Newman Quintet - Joe Newman Quintet At Count Basie's (1961) [FLAC]\02 - Love Is Here To Stay.wav

Pre-gap length 0:00:03.02

Peak level 83.1 %
Track quality 100.0 %
Test CRC F658DF4D
Copy CRC F658DF4D
Copy OK

Track 3
Filename D:\FLAC\Joe Newman Quintet - Joe Newman Quintet At Count Basie's (1961) [FLAC]\03 - Someone To Love.wav

Pre-gap length 0:00:03.00

Peak level 81.9 %
Track quality 100.0 %
Test CRC FE0EE68B
Copy CRC FE0EE68B
Copy OK

Track 4
Filename D:\FLAC\Joe Newman Quintet - Joe Newman Quintet At Count Basie's (1961) [FLAC]\04 - The Midgets.wav

Pre-gap length 0:00:02.77

Peak level 100.0 %
Track quality 99.9 %
Test CRC 54D651AD
Copy CRC 54D651AD
Copy OK

Track 5
Filename D:\FLAC\Joe Newman Quintet - Joe Newman Quintet At Count Basie's (1961) [FLAC]\05 - On Green Dolphin Street.wav

Pre-gap length 0:00:02.93

Peak level 91.2 %
Track quality 100.0 %
Test CRC D36F936E
Copy CRC D36F936E
Copy OK

Track 6
Filename D:\FLAC\Joe Newman Quintet - Joe Newman Quintet At Count Basie's (1961) [FLAC]\06 - Wednesday's Blues.wav

Pre-gap length 0:00:03.09

Peak level 80.5 %
Track quality 100.0 %
Test CRC 05B0078D
Copy CRC 05B0078D
Copy OK

No errors occured
Download link:



Links are Interchangeable - No Password - Single Extraction

uploaded


Rapidgator.net

Site BBcode/HTML Code:
Dear visitor, you went to the site as unregistered user.
We recommend you Sign up or Login to website under your name.
Information
Would you like to leave your comment? Please Login to your account to leave comments. Don't have an account? You can create a free account now.

Tag Cloud

archive of news

^
 
free html hit counter