» » » Between a Frock and a Hard Place (2015)
uploaded.to



Information of news
19-11-2015, 08:38

Between a Frock and a Hard Place (2015)

Category: Tutorials / Other


Between a Frock and a Hard Place (2015)
Between a Frock and a Hard Place (2015)
PDTV | 718x404 | .MP4/AVC @ 999 Kbps | 57mn 44s | Audio: English AAC 156 kbps, 2 channels | Subs: None | 479 MiB
Genre: Documentary

"Narrated by Terence Stamp, this is the story behind one of the world's most loved films, The Adventures of Priscilla, Queen of the Desert."

General
Complete name : Between.A.Frock.And.A.Hard.Place.2015.PDTV.mp4
Format : MPEG-4
Format profile : Base Media
Codec ID : isom
File size : 479 MiB
Duration : 57mn 44s
Overall bit rate mode : Variable
Overall bit rate : 1 159 Kbps

Video
ID : 1
Format : AVC
Format/Info : Advanced Video Codec
Format profile : [email protected]
Format settings, CABAC : Yes
Format settings, ReFrames : 5 frames
Codec ID : avc1
Codec ID/Info : Advanced Video Coding
Duration : 57mn 44s
Bit rate : 999 Kbps
Maximum bit rate : 6 097 Kbps
Width : 718 pixels
Height : 404 pixels
Display aspect ratio : 16:9
Frame rate mode : Constant
Frame rate : 25.000 fps
Color space : YUV
Chroma subsampling : 4:2:0
Bit depth : 8 bits
Scan type : Progressive
Bits/(Pixel*Frame) : 0.138
Stream size : 412 MiB (86%)
Writing library : x264 core 148 r2638 7599210
Encoding settings : cabac=1 / ref=5 / deblock=1:-2:-2 / analyse=0x3:0x113 / me=umh / subme=8 / psy=1 / psy_rd=1.00:0.00 / mixed_ref=1 / me_range=16 / chroma_me=1 / trellis=1 / 8x8dct=1 / cqm=0 / deadzone=21,11 / fast_pskip=1 / chroma_qp_offset=-2 / threads=12 / lookahead_threads=2 / sliced_threads=0 / nr=0 / decimate=1 / interlaced=0 / bluray_compat=0 / constrained_intra=0 / bframes=3 / b_pyramid=2 / b_adapt=2 / b_bias=0 / direct=3 / weightb=1 / open_gop=0 / weightp=2 / keyint=250 / keyint_min=25 / scenecut=40 / intra_refresh=0 / rc_lookahead=50 / rc=crf / mbtree=1 / crf=21.0 / qcomp=0.60 / qpmin=0 / qpmax=69 / qpstep=4 / ip_ratio=1.40 / aq=1:1.00
Encoded date : UTC 2015-11-14 15:51:03
Tagged date : UTC 2015-11-14 15:51:09

Audio
ID : 2
Format : AAC
Format/Info : Advanced Audio Codec
Format profile : LC
Codec ID : 40
Duration : 57mn 44s
Bit rate mode : Variable
Bit rate : 156 Kbps
Maximum bit rate : 280 Kbps
Channel(s) : 2 channels
Channel positions : Front: L R
Sampling rate : 48.0 KHz
Compression mode : Lossy
Stream size : 64.5 MiB (13%)
Encoded date : UTC 2015-11-14 03:57:11
Tagged date : UTC 2015-11-14 15:51:09

Screenshots:


Between a Frock and a Hard Place (2015)


Between a Frock and a Hard Place (2015)

Download link:



Links are Interchangeable - No Password - Single Extraction

uploaded


Rapidgator.net

Site BBcode/HTML Code:
Dear visitor, you went to the site as unregistered user.
We recommend you Sign up or Login to website under your name.
Information
Would you like to leave your comment? Please Login to your account to leave comments. Don't have an account? You can create a free account now.

Tag Cloud

archive of news

^
 
free html hit counter