» » Airline Concept by JP Vallarino (2015)
uploaded.to



Information of news
  • Author: BaDshaH
  • Date: 18-12-2015, 09:31
18-12-2015, 09:31

Airline Concept by JP Vallarino (2015)

Category: Tutorials




"Card Airline - Pri to beginning the trick, the spectat will notice that a red back card is pined to your shirt... You don't say anything about it yet. You ask the spectat to selece a card, from a blue back deck, and to sign it. The card is then lost in the deck. Everything goes back in the card case, that you leave to the spectat. You show your hand empty, roll up your sleeves, and without tricky moves. Open the safety pin and release the card from your shirt. You slowly turn the card... It is the signed card from the spectat!!! You can offer the card as a souvenir."

Signature Airline - Pri to beginning the trick the spectat will notice that a face up card is pined to your shirt. You openly remove the duplicate card from your deck and ask the spectat to sign it... and loose the card in the deck. You remove a silk from your breast pocket, with one wave in front of the card and suddenly... the spectat's signature has just jumped to the card. You show your hand empty, roll up your sleeves, and without tricky moves you open the safety pin and release the card from yourt shirt. And now you can offer the card as a souvenir.
Flash Airline - If you like visual effects... this is a supersonic one. A pined card on your chest will vanish in a blink and reappear instantly pined on your back.

General
Complete name : Airline Concept by JP Vallarino.mpeg
Fmat
: MPEG-4
Fmat profile : Base Media
Codec ID
: isom
File size
: 377 MiB
Duration
: 1h 5mn
Overall bit rate mode : Variable
Overall bit rate : 804 Kbps
Writing application
: Lavf54.59.106
desc
: This File is Created by Easy RealMedia Tools@!
Video
ID : 1
Fmat
: AVC
Fmat/Info
: Advanced Video Codec
Fmat settings, CABAC : Yes
Fmat settings, ReFrames : 4 frames
Codec ID
: avc1
Codec ID/Info : Advanced Video Coding
Duration
: 1h 5mn
Bit rate
: 670 Kbps
Width
: 720 pixels
Height
: 480 pixels
Display aspect ratio : 3:2
Frame rate mode : Constant
Frame rate
: 25.000 fps
Standard
: NTSC
Col space
: YUV
Chroma subsampling
: 4:2:0
Bit depth
: 8 bits
Scan type
: Progressive
Bits/(Pixel*Frame)
: 0.078
Stream size
: 314 MiB (83%)
Writing library : x264 ce 129
Encoding settings: cabac=1 / ref=3 / deblock=1:0:0 / analyse=0x3:0x113 / me=hex / subme=7 / psy=1 / psy_rd=1.00:0.00 / mixed_ref=1 / me_range=16 / chroma_me=1 / trellis=1 / 8x8dct=1 / cqm=0 / deadzone=21,11 / fast_pskip=1 / chroma_qp_offset=-2 / threads=24 / lookahead_threads=4 / sliced_threads=0 / nr=0 / decimate=1 / interlaced=0 / bluray_compat=0 / constrained_intra=0 / bframes=3 / b_pyramid=2 / b_adapt=1 / b_bias=0 / direct=1 / weightb=1 / open_gop=0 / weightp=2 / keyint=250 / keyint_min=25 / scenecut=40 / intra_refresh=0 / rc_lookahead=40 / rc=abr / mbtree=1 / bitrate=670 / ratetol=1.0 / qcomp=0.60 / qpmin=0 / qpmax=69 / qpstep=4 / ip_ratio=1.40 / aq=1:1.00
Audio
ID : 2
Fmat
: AAC
Fmat/Info
: Advanced Audio Codec
Fmat profile : LC
Codec ID
: 40
Duration
: 1h 5mn
Bit rate mode : Variable
Bit rate
: 128 Kbps
Channel(s)
: 2 channels
Channel positions: Front: L R
Sampling rate : 44.1 KHz
Compression mode : Lossy
Stream size
: 59.6 MiB (16%)

Screenshots
Airline Concept by JP Vallarino (2015)
Airline Concept by JP Vallarino (2015)
Airline Concept by JP Vallarino (2015)
Airline Concept by JP Vallarino (2015)





I recommends Buy premimum account for High speed+parallel downloads!
Rapidgator


nitroflare



uploaded


Rapidgator.net

Site BBcode/HTML Code:
Dear visitor, you went to the site as unregistered user.
We recommend you Sign up or Login to website under your name.
Information
Would you like to leave your comment? Please Login to your account to leave comments. Don't have an account? You can create a free account now.

Tag Cloud

archive of news

^
 
free html hit counter