» » Contagion / Заражение (2011)
uploaded.to



Information of news
18-12-2015, 19:21

Contagion / Заражение (2011)

Category: Movies

Contagion / Заражение (2011)

Contagion / Заражение (2011)
BDRip | MKV | AVC 1280x720, ~ 4.4 Mbps | 1hr 46mn | 6.90 GB
English: DTS, 6 ch, 1510 kbps; English \ French \ Spanish \ German \ Italian: AC3, 6 ch, 640 kbps
Subtitles: English; Subtitles(PGS): English, French, Spanish, German, Italian, Dutch, Arabic, Danish, Finnish, Hebrew, Icelandic, Norwegian, Swedish
Genre: Drama | Sci-Fi | Thriller | 2 wins & 11 nominations

Healthcare professionals, government officials and everyday people find themselves in the midst of a worldwide epidemic as the CDC works to find a cure.
Director: Steven Soderbergh
Writers: Scott Z. Burns
Stars: Matt Damon, Kate Winslet, Jude Law

Soon after her return from a business trip to Hong Kong, Beth Emhoff dies from what is a flu or some other type of infection. Her young son dies later the same day. Her husband Mitch however seems immune. Thus begins the spread of a deadly infection. For doctors and administrators at the U.S. Centers for Disease Control, several days pass before anyone realizes the extent or gravity of this new infection. They must first identify the type of virus in question and then find a means of combating it, a process that will likely take several months. As the contagion spreads to millions of people worldwide, societal order begins to break down as people panic.

General
Unique ID : 248409537919042312952470599716124976894 (0xBAE1EFCF2C6FF9DE9ED8B1AC1FE766FE)
Complete name : F:\Contagion.11.7p1.mkv
Format : Matroska
Format version : Version 4 / Version 2
File size : 6.90 GiB
Duration : 1h 46mn
Overall bit rate : 9 287 Kbps
Movie name : Release RSU75
Encoded date : UTC 2015-12-14 03:56:06
Writing application : mkvmerge v6.6.0 ('The Edge Of The In Between') built on Dec 1 2013 17:55:00
Writing library : libebml v1.3.0 + libmatroska v1.4.1

Video
ID : 1
Format : AVC
Format/Info : Advanced Video Codec
Format profile : [email protected]
Format settings, CABAC : Yes
Format settings, ReFrames : 9 frames
Codec ID : V_MPEG4/ISO/AVC
Duration : 1h 46mn
Bit rate : 4 373 Kbps
Width : 1 280 pixels
Height : 720 pixels
Display aspect ratio : 16:9
Frame rate mode : Constant
Frame rate : 23.976 fps
Color space : YUV
Chroma subsampling : 4:2:0
Bit depth : 8 bits
Scan type : Progressive
Bits/(Pixel*Frame) : 0.198
Stream size : 3.27 GiB (47%)
Title : Contagion.2011.720p.BluRay-WiKi
Writing library : x264 core 118 r2085 8a62835
Encoding settings : cabac=1 / ref=9 / deblock=1:-3:-3 / analyse=0x3:0x113 / me=umh / subme=10 / psy=1 / psy_rd=1.10:0.00 / mixed_ref=1 / me_range=32 / chroma_me=1 / trellis=2 / 8x8dct=1 / cqm=0 / deadzone=21,11 / fast_pskip=0 / chroma_qp_offset=-4 / threads=6 / sliced_threads=0 / nr=0 / decimate=0 / interlaced=0 / bluray_compat=0 / constrained_intra=0 / bframes=8 / b_pyramid=2 / b_adapt=2 / b_bias=0 / direct=3 / weightb=1 / open_gop=0 / weightp=2 / keyint=250 / keyint_min=23 / scenecut=40 / intra_refresh=0 / rc_lookahead=48 / rc=2pass / mbtree=1 / bitrate=4373 / ratetol=1.0 / qcomp=0.60 / qpmin=0 / qpmax=69 / qpstep=4 / cplxblur=20.0 / qblur=0.5 / ip_ratio=1.40 / aq=1:0.80
Language : English
Default : Yes
Forced : No

Audio #1
ID : 2
Format : DTS
Format/Info : Digital Theater Systems
Mode : 16
Format settings, Endianness : Big
Codec ID : A_DTS
Duration : 1h 46mn
Bit rate mode : Constant
Bit rate : 1 509 Kbps
Channel(s) : 6 channels
Channel positions : Front: L C R, Side: L R, LFE
Sampling rate : 48.0 KHz
Bit depth : 24 bits
Compression mode : Lossy
Stream size : 1.12 GiB (16%)
Language : English
Default : Yes
Forced : No

Audio #2
ID : 4
Format : AC-3
Format/Info : Audio Coding 3
Mode extension : CM (complete main)
Format settings, Endianness : Big
Codec ID : A_AC3
Duration : 1h 46mn
Bit rate mode : Constant
Bit rate : 640 Kbps
Channel(s) : 6 channels
Channel positions : Front: L C R, Side: L R, LFE
Sampling rate : 48.0 KHz
Compression mode : Lossy
Stream size : 487 MiB (7%)
Language : English
Default : No
Forced : No

Audio #3
ID : 5
Format : AC-3
Format/Info : Audio Coding 3
Mode extension : CM (complete main)
Format settings, Endianness : Big
Codec ID : A_AC3
Duration : 1h 46mn
Bit rate mode : Constant
Bit rate : 640 Kbps
Channel(s) : 6 channels
Channel positions : Front: L C R, Side: L R, LFE
Sampling rate : 48.0 KHz
Compression mode : Lossy
Stream size : 487 MiB (7%)
Language : French
Default : No
Forced : No

Audio #4
ID : 6
Format : AC-3
Format/Info : Audio Coding 3
Mode extension : CM (complete main)
Format settings, Endianness : Big
Codec ID : A_AC3
Duration : 1h 46mn
Bit rate mode : Constant
Bit rate : 640 Kbps
Channel(s) : 6 channels
Channel positions : Front: L C R, Side: L R, LFE
Sampling rate : 48.0 KHz
Compression mode : Lossy
Stream size : 487 MiB (7%)
Language : German
Default : No
Forced : No

Audio #5
ID : 7
Format : AC-3
Format/Info : Audio Coding 3
Mode extension : CM (complete main)
Format settings, Endianness : Big
Codec ID : A_AC3
Duration : 1h 46mn
Bit rate mode : Constant
Bit rate : 640 Kbps
Channel(s) : 6 channels
Channel positions : Front: L C R, Side: L R, LFE
Sampling rate : 48.0 KHz
Compression mode : Lossy
Stream size : 487 MiB (7%)
Language : Italian
Default : No
Forced : No

Audio #6
ID : 8
Format : AC-3
Format/Info : Audio Coding 3
Mode extension : CM (complete main)
Format settings, Endianness : Big
Codec ID : A_AC3
Duration : 1h 46mn
Bit rate mode : Constant
Bit rate : 640 Kbps
Channel(s) : 6 channels
Channel positions : Front: L C R, Side: L R, LFE
Sampling rate : 48.0 KHz
Compression mode : Lossy
Stream size : 487 MiB (7%)
Language : Spanish
Default : No
Forced : No

Text #1
ID : 3
Format : UTF-8
Codec ID : S_TEXT/UTF8
Codec ID/Info : UTF-8 Plain Text
Language : English
Default : No
Forced : No

Text #2
ID : 9
Format : PGS
Muxing mode : zlib
Codec ID : S_HDMV/PGS
Codec ID/Info : Picture based subtitle format used on BDs/HD-DVDs
Title : PGS
Language : English
Default : No
Forced : No

Text #3
ID : 10
Format : PGS
Muxing mode : zlib
Codec ID : S_HDMV/PGS
Codec ID/Info : Picture based subtitle format used on BDs/HD-DVDs
Title : PGS
Language : French
Default : No
Forced : No

Text #4
ID : 11
Format : PGS
Muxing mode : zlib
Codec ID : S_HDMV/PGS
Codec ID/Info : Picture based subtitle format used on BDs/HD-DVDs
Title : PGS
Language : German
Default : No
Forced : No

Text #5
ID : 12
Format : PGS
Muxing mode : zlib
Codec ID : S_HDMV/PGS
Codec ID/Info : Picture based subtitle format used on BDs/HD-DVDs
Title : PGS
Language : Italian
Default : No
Forced : No

Text #6
ID : 13
Format : PGS
Muxing mode : zlib
Codec ID : S_HDMV/PGS
Codec ID/Info : Picture based subtitle format used on BDs/HD-DVDs
Title : PGS
Language : Spanish
Default : No
Forced : No

Text #7
ID : 14
Format : PGS
Muxing mode : zlib
Codec ID : S_HDMV/PGS
Codec ID/Info : Picture based subtitle format used on BDs/HD-DVDs
Title : PGS
Language : Dutch
Default : No
Forced : No

Text #8
ID : 15
Format : PGS
Muxing mode : zlib
Codec ID : S_HDMV/PGS
Codec ID/Info : Picture based subtitle format used on BDs/HD-DVDs
Title : PGS
Language : Arabic
Default : No
Forced : No

Text #9
ID : 16
Format : PGS
Muxing mode : zlib
Codec ID : S_HDMV/PGS
Codec ID/Info : Picture based subtitle format used on BDs/HD-DVDs
Title : PGS
Language : Danish
Default : No
Forced : No

Text #10
ID : 17
Format : PGS
Muxing mode : zlib
Codec ID : S_HDMV/PGS
Codec ID/Info : Picture based subtitle format used on BDs/HD-DVDs
Title : PGS
Language : Finnish
Default : No
Forced : No

Text #11
ID : 18
Format : PGS
Muxing mode : zlib
Codec ID : S_HDMV/PGS
Codec ID/Info : Picture based subtitle format used on BDs/HD-DVDs
Title : PGS
Language : Hebrew
Default : No
Forced : No

Text #12
ID : 19
Format : PGS
Muxing mode : zlib
Codec ID : S_HDMV/PGS
Codec ID/Info : Picture based subtitle format used on BDs/HD-DVDs
Title : PGS
Language : Icelandic
Default : No
Forced : No

Text #13
ID : 20
Format : PGS
Muxing mode : zlib
Codec ID : S_HDMV/PGS
Codec ID/Info : Picture based subtitle format used on BDs/HD-DVDs
Title : PGS
Language : Norwegian
Default : No
Forced : No

Text #14
ID : 21
Format : PGS
Muxing mode : zlib
Codec ID : S_HDMV/PGS
Codec ID/Info : Picture based subtitle format used on BDs/HD-DVDs
Title : PGS
Language : Portuguese
Default : No
Forced : No

Text #15
ID : 22
Format : PGS
Muxing mode : zlib
Codec ID : S_HDMV/PGS
Codec ID/Info : Picture based subtitle format used on BDs/HD-DVDs
Title : PGS
Language : Swedish
Default : No
Forced : No

Text #16
ID : 23
Format : PGS
Muxing mode : zlib
Codec ID : S_HDMV/PGS
Codec ID/Info : Picture based subtitle format used on BDs/HD-DVDs
Title : PGS
Language : French
Default : No
Forced : No

Text #17
ID : 24
Format : PGS
Muxing mode : zlib
Codec ID : S_HDMV/PGS
Codec ID/Info : Picture based subtitle format used on BDs/HD-DVDs
Title : PGS
Language : German
Default : No
Forced : No

Text #18
ID : 25
Format : PGS
Muxing mode : zlib
Codec ID : S_HDMV/PGS
Codec ID/Info : Picture based subtitle format used on BDs/HD-DVDs
Title : PGS
Language : Italian
Default : No
Forced : No

Text #19
ID : 26
Format : PGS
Muxing mode : zlib
Codec ID : S_HDMV/PGS
Codec ID/Info : Picture based subtitle format used on BDs/HD-DVDs
Title : PGS
Language : Spanish
Default : No
Forced : No

Menu
00:00:00.000 : en:Chapter 1
00:04:33.356 : en:Chapter 2
00:07:26.780 : en:Chapter 3
00:11:08.960 : en:Chapter 4
00:14:20.818 : en:Chapter 5
00:16:01.043 : en:Chapter 6
00:17:44.814 : en:Chapter 7
00:20:15.464 : en:Chapter 8
00:22:23.634 : en:Chapter 9
00:24:11.909 : en:Chapter 10
00:26:55.781 : en:Chapter 11
00:30:31.997 : en:Chapter 12
00:34:17.097 : en:Chapter 13
00:36:35.026 : en:Chapter 14
00:38:40.735 : en:Chapter 15
00:41:28.236 : en:Chapter 16
00:42:51.068 : en:Chapter 17
00:46:55.146 : en:Chapter 18
00:49:49.403 : en:Chapter 19
00:52:00.951 : en:Chapter 20
00:53:57.609 : en:Chapter 21
00:57:30.364 : en:Chapter 22
01:00:54.234 : en:Chapter 23
01:03:22.716 : en:Chapter 24
01:07:42.392 : en:Chapter 25
01:10:21.259 : en:Chapter 26
01:12:34.225 : en:Chapter 27
01:15:35.322 : en:Chapter 28
01:18:10.227 : en:Chapter 29
01:22:34.032 : en:Chapter 30
01:25:23.410 : en:Chapter 31
01:31:28.358 : en:Chapter 32
01:34:35.295 : en:Chapter 33
01:36:10.556 : en:Chapter 34
01:41:28.332 : en:Chapter 35

Screenshots (click to enlarge to original size):

Contagion / Заражение (2011)
Contagion / Заражение (2011)
Contagion / Заражение (2011)
Contagion / Заражение (2011)
Contagion / Заражение (2011)


Download link:

rapidgator_net:
qcg7c.Contagion...2011.part01.rar.html
qcg7c.Contagion...2011.part02.rar.html
qcg7c.Contagion...2011.part03.rar.html
qcg7c.Contagion...2011.part04.rar.html
qcg7c.Contagion...2011.part05.rar.html
qcg7c.Contagion...2011.part06.rar.html
qcg7c.Contagion...2011.part07.rar.html
qcg7c.Contagion...2011.part08.rar.html
qcg7c.Contagion...2011.part09.rar.html
qcg7c.Contagion...2011.part10.rar.html
qcg7c.Contagion...2011.part11.rar.html
qcg7c.Contagion...2011.part12.rar.html
qcg7c.Contagion...2011.part13.rar.html
qcg7c.Contagion...2011.part14.rar.html
qcg7c.Contagion...2011.part15.rar.html
qcg7c.Contagion...2011.part16.rar.html
qcg7c.Contagion...2011.part17.rar.html
qcg7c.Contagion...2011.part18.rar.html
qcg7c.Contagion...2011.part19.rar.html
qcg7c.Contagion...2011.part20.rar.html
qcg7c.Contagion...2011.part21.rar.html
qcg7c.Contagion...2011.part22.rar.html
qcg7c.Contagion...2011.part23.rar.html
qcg7c.Contagion...2011.part24.rar.html
qcg7c.Contagion...2011.part25.rar.html
qcg7c.Contagion...2011.part26.rar.html
qcg7c.Contagion...2011.part27.rar.html
qcg7c.Contagion...2011.part28.rar.html
qcg7c.Contagion...2011.part29.rar.html
qcg7c.Contagion...2011.part30.rar.html

nitroflare_com:
qcg7c.Contagion...2011.part01.rar
qcg7c.Contagion...2011.part02.rar
qcg7c.Contagion...2011.part03.rar
qcg7c.Contagion...2011.part04.rar
qcg7c.Contagion...2011.part05.rar
qcg7c.Contagion...2011.part06.rar
qcg7c.Contagion...2011.part07.rar
qcg7c.Contagion...2011.part08.rar
qcg7c.Contagion...2011.part09.rar
qcg7c.Contagion...2011.part10.rar
qcg7c.Contagion...2011.part11.rar
qcg7c.Contagion...2011.part12.rar
qcg7c.Contagion...2011.part13.rar
qcg7c.Contagion...2011.part14.rar
qcg7c.Contagion...2011.part15.rar
qcg7c.Contagion...2011.part16.rar
qcg7c.Contagion...2011.part17.rar
qcg7c.Contagion...2011.part18.rar
qcg7c.Contagion...2011.part19.rar
qcg7c.Contagion...2011.part20.rar
qcg7c.Contagion...2011.part21.rar
qcg7c.Contagion...2011.part22.rar
qcg7c.Contagion...2011.part23.rar
qcg7c.Contagion...2011.part24.rar
qcg7c.Contagion...2011.part25.rar
qcg7c.Contagion...2011.part26.rar
qcg7c.Contagion...2011.part27.rar
qcg7c.Contagion...2011.part28.rar
qcg7c.Contagion...2011.part29.rar
qcg7c.Contagion...2011.part30.rar


Links are Interchangeable - No Password - Single Extraction

uploaded


Rapidgator.net

Site BBcode/HTML Code:
Dear visitor, you went to the site as unregistered user.
We recommend you Sign up or Login to website under your name.
Information
Would you like to leave your comment? Please Login to your account to leave comments. Don't have an account? You can create a free account now.

Tag Cloud

archive of news

^
 
free html hit counter