» » Red Hot Chili Peppers - Suck My Kiss (Australia CD5) (1992)
uploaded.to



Information of news
21-12-2015, 02:01

Red Hot Chili Peppers - Suck My Kiss (Australia CD5) (1992)

Category: Music

Red Hot Chili Peppers - Suck My Kiss (Australia CD5) (1992)

Red Hot Chili Peppers - Suck My Kiss (Australia CD5) (1992)
EAC Rip | FLAC with CUE and log | scans | 103 mb
MP3 CBR 320kbps | RAR | 41 mb
Genre: alternative, funk, rock

"This is a CD single released as a "Limited Edition Tour Souvenir" when the group went on their Australian tour. "Search And Destroy", an Iggy & The Stooges cover, is the same version as found on other RHCP singles. "Fela's Cock" is a great instrumental recorded during the BloodSugarSexMagik sessions."

Red Hot Chili Peppers - Suck My Kiss (Australia CD5) (1992)

1. Suck My Kiss
2. Search And Destroy
3. Fela's Cock
---
Anthony-Kiedis
Flea-Bag
John-Frusicante
Chad-Rad

Produced by Rick Rubin


Red Hot Chili Peppers - Suck My Kiss (Australia CD5) (1992)


EAC extraction logfile from 18. October 2006, 10:19 for CD
Red Hot Chili Peppers / Suck My Kiss (Australia CD5)

Used drive : LITE-ON DVDRW SOHW-1633S Adapter: 0 ID: 0
Read mode : Secure with NO C2, accurate stream, disable cache
Read offset correction : 12
Overread into Lead-In and Lead-Out : No

Used output format : Internal WAV Routines
44.100 Hz; 16 Bit; Stereo

Other options :
Fill up missing offset samples with silence : Yes
Delete leading and trailing silent blocks : No
Installed external ASPI interface

Track 1
Filename D:\FLAC\Red Hot Chili Peppers - Suck My Kiss (Australia CD5) (1992) [FLAC]\01 - Suck My Kiss.wav

Pre-gap length 0:00:02.00

Peak level 97.7 %
Track quality 100.0 %
Test CRC 211997D3
Copy CRC 211997D3
Copy OK

Track 2
Filename D:\FLAC\Red Hot Chili Peppers - Suck My Kiss (Australia CD5) (1992) [FLAC]\02 - Search And Destroy.wav

Peak level 99.7 %
Track quality 99.9 %
Test CRC 6835659C
Copy CRC 6835659C
Copy OK

Track 3
Filename D:\FLAC\Red Hot Chili Peppers - Suck My Kiss (Australia CD5) (1992) [FLAC]\03 - Fela's Cock.wav

Peak level 100.0 %
Track quality 100.0 %
Test CRC 4E2F80EC
Copy CRC 4E2F80EC
Copy OK

No errors occured

End of status report
Download link:



Links are Interchangeable - No Password - Single Extraction

uploaded


Rapidgator.net

Site BBcode/HTML Code:
Dear visitor, you went to the site as unregistered user.
We recommend you Sign up or Login to website under your name.
Information
Would you like to leave your comment? Please Login to your account to leave comments. Don't have an account? You can create a free account now.

Tag Cloud

archive of news

^
 
free html hit counter