» » Echoes - Barefoot To The Moon: An Acoustic Tribute To Pink Floyd (2015)
uploaded.to



Information of news
10-01-2016, 05:44

Echoes - Barefoot To The Moon: An Acoustic Tribute To Pink Floyd (2015)

Category: Music

Echoes - Barefoot To The Moon: An Acoustic Tribute To Pink Floyd (2015)

Echoes - Barefoot To The Moon: An Acoustic Tribute To Pink Floyd (2015)
EAC Rip | FLAC: Image+Cue+Log | 489 Mb | Scans | Time: 01:18:29
Genre: Progressive Rock, Art Rock, Tribute | Label: Pride & Joy Music | Cat.№: PJM10100

After performing hundreds of concerts throughout Europe, enchanting thousands of people and playing festivals alongside all time greats like Jethro Tull, Joe Cocker, Manfred Mann and Asia, Echoes are now one of the premier Pink Floyd Tribute Bands. To echo the music has never been enough for this band and so the elaborate live shows convey the grandeur in all its facets. The "Süddeutsche Zeitung" simply calls it a spectacle.

In 2014 "Pink Floyd’s star pupils" (Vogtland-Anzeiger) ventured a new course and on top of their typically atypical renditions of Pink Floyd’s music they dared an experiment: the Pink Floyd acoustic concert - no amps, no safety net and no smoke and mirrors. Is that even possible? Can music that lives and breathes sprawling soundscapes, intricate cascades of electronic noise and intense atmospheric density be reduced to such austerity that the spirit isn’t lost? Or simply put, can you walk barefoot to the dark side of the moon?

With the acoustic show "Barefoot To The Moon" Echoes present their answer. The band centered around extraordinary guitarist and singer Oliver Hartmann (Rock Meets Classic, Avantasia) carefully dismantles the complex arrangements of the British art rock giants and uses only elementary and partly very unique Instruments to reduce the songs to their fundamental composition. All the while making sure that none of the magic is lost, but rather focused and so familiar sounds slightly change color and thus far unknown shades emerge. This stripped state shows a fascinatingly fragile beauty, that could not have been perceived before. Echoes reveals the essence of Pink Floyd.
Track Listing

01. Shine On You Crazy Diamond Pt. I-V (13:00)
02. High Hopes (09:09)
03. Welcome To The Machine (05:56)
04. Wish You Were Here (06:18)
05. The Great Gig In The Sky (04:46)
06. The Happiest Days Of Our Lifes (01:17)
07. Another Brick In The Wall Pt. II (04:44)
08. Hey You (05:10)
09. Nobody Home (04:11)
10. Comfortably Numb (08:05)
11. Money (07:41)
12. Run Like Hell (08:07)

Produced by Oliver Hartmann

The Band

• Oliver Hartmann - Vocals, Acoustic Guitars
• Martin Hofmann - Vocals, Acoustic Bass & Gitar
• Paul Kunkel - Vocals, Piano
• Steffen Maier - Drums & Percussion
• Michael Unger - Woodwinds & Vocals
• Carolin Riehemann - Vocals
• Irena Morisáková - Cello
• Terezie Fadrná - Cello
• Milena Kolárovà - Violin
• Alice Vasilová - Violin


EAC Log


Exact Audio Copy V1.1 from 23. June 2015

EAC extraction logfile from 21. November 2015, 8:59

Echoes / Barefoot to the Moon (An Acoustic Tribute To Pink Floyd)

Used drive : PIONEER BD-RW BDR-209D Adapter: 0 ID: 4

Read mode : Secure
Utilize accurate stream : Yes
Defeat audio cache : Yes
Make use of C2 pointers : No

Read offset correction : 667
Overread into Lead-In and Lead-Out : No
Fill up missing offset samples with silence : Yes
Delete leading and trailing silent blocks : No
Null samples used in CRC calculations : Yes
Used interface : Installed external ASPI interface

Used output format : User Defined Encoder
Selected bitrate : 768 kBit/s
Quality : High
Add ID3 tag : No
Command line compressor : C:\Program Files (x86)\Exact Audio Copy\FLAC\FLAC.EXE
Additional command line options : -6 -V -T "ARTIST=%artist%" -T "TITLE=%title%" -T "ALBUM=%albumtitle%" -T "DATE=%year%" -T "TRACKNUMBER=%tracknr%" -T "GENRE=%genre%" -T "COMMENT=%comment%" -T "BAND=%albuminterpret%" -T "ALBUMARTIST=%albuminterpret%" -T "COMPOSER=%composer%" %haslyrics%–tag-from-file=LYRICS="%lyricsfile%"%haslyrics% -T "DISCNUMBER=%cdnumber%" -T "TOTALDISCS=%totalcds%" -T "TOTALTRACKS=%numtracks%" %hascover%–picture="%coverfile%"%hascover% %source% -o %dest%


TOC of the extracted CD

Track | Start | Length | Start sector | End sector
––––––––––––––––––––––––––––-
1 | 0:00.00 | 13:00.10 | 0 | 58509
2 | 13:00.10 | 9:09.56 | 58510 | 99740
3 | 22:09.66 | 5:56.57 | 99741 | 126497
4 | 28:06.48 | 6:18.31 | 126498 | 154878
5 | 34:25.04 | 4:46.14 | 154879 | 176342
6 | 39:11.18 | 1:17.42 | 176343 | 182159
7 | 40:28.60 | 4:44.22 | 182160 | 203481
8 | 45:13.07 | 5:10.14 | 203482 | 226745
9 | 50:23.21 | 4:11.00 | 226746 | 245570
10 | 54:34.21 | 8:05.21 | 245571 | 281966
11 | 62:39.42 | 7:41.50 | 281967 | 316591
12 | 70:21.17 | 8:07.27 | 316592 | 353143


Range status and errors

Selected range

Filename E:\MUSIC\Echoes - Barefoot to the Moon (An Acoustic Tribute To Pink Floyd).wav

Peak level 89.1 %
Extraction speed 3.3 X
Range quality 100.0 %
Test CRC 1CB1E5D8
Copy CRC 1CB1E5D8
Copy OK

No errors occurred


AccurateRip summary

Track 1 cannot be verified as accurate (confidence 1) [E27ED737], AccurateRip returned [1376B08F] (AR v2)
Track 2 cannot be verified as accurate (confidence 1) [8D5DB296], AccurateRip returned [C5002DC5] (AR v2)
Track 3 cannot be verified as accurate (confidence 1) [FCA78186], AccurateRip returned [206F5B58] (AR v2)
Track 4 cannot be verified as accurate (confidence 1) [9B1FFAE3], AccurateRip returned [5DB35E29] (AR v2)
Track 5 cannot be verified as accurate (confidence 1) [ACA42A3E], AccurateRip returned [61990E72] (AR v2)
Track 6 cannot be verified as accurate (confidence 1) [8E1195B1], AccurateRip returned [FC3F9F73] (AR v2)
Track 7 cannot be verified as accurate (confidence 1) [D6C555F9], AccurateRip returned [742700EC] (AR v2)
Track 8 cannot be verified as accurate (confidence 1) [2E20BA95], AccurateRip returned A5EB23C (AR v2)
Track 9 cannot be verified as accurate (confidence 1) F168ADC, AccurateRip returned [4BC01C98] (AR v2)
Track 10 cannot be verified as accurate (confidence 1) [E51C675F], AccurateRip returned [00AEA306] (AR v2)
Track 11 cannot be verified as accurate (confidence 1) [C3A33F6F], AccurateRip returned [E84B8E13] (AR v2)
Track 12 cannot be verified as accurate (confidence 1) [2D421626], AccurateRip returned [906F7547] (AR v2)

No tracks could be verified as accurate
You may have a different pressing from the one(s) in the database

End of status report

==== Log checksum DC630D675C468C4CF9C5AFCF10106DF48AB3E7AB35C93224EBCBB5A9AF052E47 ====



Many thanks to the original uploader: HaRD

PINK

uploaded


Rapidgator.net

Site BBcode/HTML Code:
Dear visitor, you went to the site as unregistered user.
We recommend you Sign up or Login to website under your name.
Information
Would you like to leave your comment? Please Login to your account to leave comments. Don't have an account? You can create a free account now.

Tag Cloud

archive of news

^
 
free html hit counter