» » Planetary (2015) [webdl (mp4)]
uploaded.to



Information of news
  • Author: 6_1_9
  • Date: 3-02-2016, 19:06
3-02-2016, 19:06

Planetary (2015) [webdl (mp4)]

Category: Tutorials

Planetary (2015) [webdl (mp4)]
Planetary (2015) [WebDL (MP4)]
English | Size: 2.46 GB (2,641,023,440 bytes)
Category: Earth / Environment


========

Planetary is a provocative and breathtaking wakeup call - a cross continental, cinematic journey, that explores our cosmic origins and our future as a species. In a stunning visual exploration, the film interweaves imagery from NASA Apollo missions with visions of the Milky Way, Buddhist monasteries in the Himalayas, and the cacophonous sounds of downtown Tokyo and Manhattan, with intimate interviews from renowned experts including astronauts Ron Garan and Mae Jemison (the first African American woman in space), celebrated environmentalist Bill McKibben, National Book Award winner Barry Lopez, anthropologist Wade Davis, to National Geographic Explorer Elizabeth Lindsey, and Head of the Tibetan Buddhist Kagyu school, the 17th Karmapa. PLANETARY asks us to rethink who we really are, to reconsider our relationship with ourselves, each other and the world around us.

http://weareplanetary.com/
http://www.imdb.com/title/tt3462896/

Complete name :\PLANETARY-HD.mp4
Format : MPEG-4
Format profile : Base Media / Version 2
Codec ID : mp42
File size : 2.46 GiB
Duration : 1h 24mn
Overall bit rate mode : Variable
Overall bit rate : 4 150 Kbps
Encoded date : UTC 2015-04-20 22:39:54
Tagged date : UTC 2015-04-20 22:39:54

Video
ID : 1
Format : AVC
Format/Info : Advanced Video Codec
Format profile : [email protected]
Format settings, CABAC : Yes
Format settings, Reframes : 4 frames
Codec ID : avc1
Codec ID/Info : Advanced Video Coding
Duration : 1h 24mn
Bit rate : 3 890 Kbps
Width : 1 920 pixels
Height : 806 pixels
Display aspect ratio : 2.40:1
frame rate mode : Constant
frame rate : 23.976 fps
Color space : YUV
Chroma subsampling : 4:2:0
Bit depth : 8 bits
Scan type : Progressive
Bits/(Pixel*frame) : 0.105
Stream size : 2.31 GiB (94%)
Writing library : x264 core 144 r11 40bb568

Audio
ID : 2
Format : AAC
Format/Info : Advanced Audio Codec
Format profile : LC
Codec ID : 40
Duration : 1h 24mn
Bit rate mode : Variable
Bit rate : 256 Kbps
Channel(s) : 2 channels
Channel positions : Front: L R
Sampling rate : 48.0 KHz
Compression mode : Lossy
Delay relative to video : 83ms
Stream size : 155 MiB (6%)

Download

rapidgator


nitroflare


uploaded

uploaded


Rapidgator.net

Site BBcode/HTML Code:
Dear visitor, you went to the site as unregistered user.
We recommend you Sign up or Login to website under your name.
Information
Would you like to leave your comment? Please Login to your account to leave comments. Don't have an account? You can create a free account now.

Tag Cloud

archive of news

^
 
free html hit counter