» » Tete Montoliu - Blues For Myself (1977) {DiscMedi Blau}
uploaded.to



Information of news
14-02-2016, 13:34

Tete Montoliu - Blues For Myself (1977) {DiscMedi Blau}

Category: Music

Tete Montoliu - Blues For Myself (1977) {DiscMedi Blau}

Tete Montoliu - Blues For Myself (1977) {DiscMedi Blau}
EAC 1.0b3 | FLAC tracks level 8 | Cue+Log+M3U | Full Scans 600dpi | 327MB + 5% Recovery
Genre: Jazz, Hard-Bop

The blind Catalonian pianist Tete Montoliu is in great form on this 1977 session recorded in Spain, accompanied by bassist Eric Peter and drummer Peer Wyboris. He shows off his tremendous chops in a roller coaster treatment of the bittersweet ballad "You've Changed," then switches to a jaunty mood for a brisk treatment of "It Could Happen to You." Wyboris kicks off the thunderous take of Jimmy Heath's "Jimmy's Tempo," a passionate hard bop vehicle. But the primary focus of this CD consists of four original blues penned by the pianist. It seems likely that at least some of them were improvised on the date, though "Blues for Coltrane" seems to draw inspiration from the late tenor saxophonist's rapid-fire live solos that left little open space. "Blues for Myself," the centerpiece of the release, seems closely related to "You've Changed," though the chord progressions do vary. Released by the Spanish label Ensayo, this disc is worth acquiring.

Track List
01. Blues for Corien (Tete Montoliu) 5:13
02. You've Changed (Bill Carey-Carl Fisher) 7:35
03. And the Angels Sing: It Could Happen to You (Burke Van Heusen) 6:03
04. Blues for Myself (Tete Montoliu) 6:14
05. Jimmy's Tempo (Jimmy Heart) 5:16
06. Blues for Llorach (Tete Montoliu) 6:01
07. Show Details Blues for Coltrane (Tete Montoliu) 3:59

musicians
Tete Montoliu - piano
Peer Wyboris - drums
Eric Peter - bass

Produced by Antonio Armet

EAC



Exact Audio Copy V1.0 beta 3 from 29. August 2011

EAC extraction logfile from 7. February 2016, 0:10

Tete Montoliu / Blues For Myself (2015 Remastered)

Used drive : PLEXTOR DVDR PX-L890SA Adapter: 5 ID: 1

Read mode : Secure
Utilize accurate stream : Yes
Defeat audio cache : Yes
Make use of C2 pointers : No

Read offset correction : 6
Overread into Lead-In and Lead-Out : No
Fill up missing offset samples with silence : Yes
Delete leading and trailing silent blocks : No
Null samples used in CRC calculations : Yes
Used interface : Native Win32 interface for Win NT & 2000
Gap handling : Appended to previous track

Used output format : User Defined Encoder
Selected bitrate : 128 kBit/s
Quality : High
Add ID3 tag : No
Command line compressor : C:\Program Files (x86)\Exact Audio Copy\FLAC\FLAC.EXE
Additional command line options : -8 -V -T "ARTIST=%artist%" -T "TITLE=%title%" -T "ALBUM=%albumtitle%" -T "DATE=%year%" -T "TRACKNUMBER=%tracknr%" -T "TOTALTRACKS=%numtracks%" -T "GENRE=%genre%" -T "ALBUMARTIST=%albumartist%" -T "ALBUM ARTIST=%albumartist%" -T "COMMENT=EAC Secure Mode, Test & Copy, AccurateRip, FLAC -8" %source%

TOC of the extracted CD

Track | Start | Length | Start sector | End sector
-----------------------------
1 | 0:00.00 | 5:14.02 | 0 | 23551
2 | 5:14.02 | 7:36.00 | 23552 | 57751
3 | 12:50.02 | 6:11.48 | 57752 | 85624
4 | 19:01.50 | 6:15.00 | 85625 | 113749
5 | 25:16.50 | 5:16.71 | 113750 | 137520
6 | 30:33.46 | 6:01.07 | 137521 | 164602
7 | 36:34.53 | 4:04.27 | 164603 | 182929

Track 1

Filename E:\01 - Blues for Corien.wav

Pre-gap length 0:00:02.00

Peak level 96.6 %
Extraction speed 3.2 X
Track quality 99.9 %
Test CRC 9A830F74
Copy CRC 9A830F74
Track not present in AccurateRip database
Copy OK

Track 2

Filename E:\02 - You've Changed.wav

Peak level 96.6 %
Extraction speed 4.6 X
Track quality 100.0 %
Test CRC 770932D5
Copy CRC 770932D5
Track not present in AccurateRip database
Copy OK

Track 3

Filename E:\03 - It Could Happen to You.wav

Peak level 96.6 %
Extraction speed 5.1 X
Track quality 100.0 %
Test CRC C1D166A1
Copy CRC C1D166A1
Track not present in AccurateRip database
Copy OK

Track 4

Filename E:\04 - Blues for Myself.wav

Peak level 96.6 %
Extraction speed 5.5 X
Track quality 100.0 %
Test CRC 5AB6351D
Copy CRC 5AB6351D
Track not present in AccurateRip database
Copy OK

Track 5

Filename E:\05 - Jimmy's Tempo.wav

Peak level 96.6 %
Extraction speed 5.9 X
Track quality 100.0 %
Test CRC 6B60414D
Copy CRC 6B60414D
Track not present in AccurateRip database
Copy OK

Track 6

Filename E:\06 - Blues for Llorach.wav

Peak level 96.6 %
Extraction speed 6.2 X
Track quality 100.0 %
Test CRC 1789DFDA
Copy CRC 1789DFDA
Track not present in AccurateRip database
Copy OK

Track 7

Filename E:\07 - Blues for Coltrane.wav

Peak level 96.6 %
Extraction speed 5.0 X
Track quality 99.9 %
Test CRC B27E6D05
Copy CRC B27E6D05
Track not present in AccurateRip database
Copy OK

None of the tracks are present in the AccurateRip database

No errors occurred

End of status report

==== Log checksum 66F4170B2E92E43324C1184C47F99D4CFB5C45A70DAAB1CCB1A04B2B459BBBDB ====


Dynamic



----------------------------------------
Analyzed: Tete Montoliu / Blues For Myself (2015 Remastered)
----------------------------------------

DR Peak RMS Duration Track
----------------------------------------
DR10 -0.30 dB -13.45 dB 5:14 01-Blues for Corien
DR12 -0.30 dB -15.28 dB 7:36 02-You've Changed
DR9 -0.30 dB -12.36 dB 6:12 03-It Could Happen to You
DR11 -0.30 dB -14.32 dB 6:15 04-Blues for Myself
DR7 -0.30 dB -10.06 dB 5:17 05-Jimmy's Tempo
DR9 -0.30 dB -13.30 dB 6:01 06-Blues for Llorach
DR7 -0.30 dB -10.06 dB 4:04 07-Blues for Coltrane
----------------------------------------

Number of tracks: 7
Official DR value: DR10

Samplerate: 44100 Hz
Channels: 2
Bits per sample: 16
Bitrate: 968 kbps
Codec: FLAC
================================================================================
Download link:

Buy Premium To Support Me & Get Resumable Support & Max Speed:



Links are Interchangeable - No Password - Single Extraction

uploaded


Rapidgator.net

Site BBcode/HTML Code:
Dear visitor, you went to the site as unregistered user.
We recommend you Sign up or Login to website under your name.
Information
Would you like to leave your comment? Please Login to your account to leave comments. Don't have an account? You can create a free account now.

Tag Cloud

archive of news

^
 
free html hit counter