» » Ben Adkins - Show And Tell Funnel
Information of news
  • Author: mitsumi
  • Date: 30-11-2020, 16:13
30-11-2020, 16:13

Ben Adkins - Show And Tell Funnel

Category: Tutorials

UploadGIG.com
Ben  Adkins - Show And Tell Funnel


Ben Adkins - Show And Tell Funnel
WEBRip | English | MP4 + PDF Guides | 1440 x 812 | AVC ~1139 Kbps | 30 fps
AAC | 69.4 Kbps | 44.1 KHz | 2 channels | ~4.5 hours | 1.58 GB
Genre: eLearning Video / Business, Sales, Marketing
Learn the powerful system the you can use to get Digital Marketing clients using cold email reach outs (using 2 very special emails and webpage template).


What I'll be Showing you Inside of the "Show and Tell Funnel" Program.
Part 1:
The 10 Emails a Week Client System.
You're going to see a full walkthrough of how sending 10 emails a week (that take around 1-2 hours to send) can get you clients from all over the world... no matter where you live. You'll finally be able to have a consistent way to attract clients without ever having to meet them face to face.

Part 2:
The Show and Tell "Email Writing Campaign" Template.
You'll get the exact email template that I use to write personal cold emails to my potential clients. You'll learn how the embedded "psychological hooks" grab the attention of these business owners and get them to respond back. You'll also see exactly how I respond to them to get the deal done.

Part 3:
The Show and Tell "Single Page Sales Closer" Template.
You'll get the full single page template that I use with my email campaigns to close business from a distance. You'll also see the powerful way that I use Remarketing to make sure that my message and agency isn't easily forgotten.

Part 4:
The "Once they Open Followup System".
You'll learn the exact hooks that I use to close the sale once they open up the emails that I send them. You'll see how I track opens and the followup process that I use to close the deal once they give me the "sales signals" that I need to move forward in the process.

Part 5:
The $400/month Show and Tell Funnel Outsourcing Guide.
You'll learn how to train someone else to send out the email each week, as well as set up the sale. This will allow you to focus on growing other parts of your agency.

This is the secret to putting your cold client outreach on autopilot without sacrificing the system's effectiveness.

General
Complete name : 04-Part 3- The Show and Tell 'Single Page Sales Closer' Template.mp4
Format : MPEG-4
Format profile : Base Media
Codec ID : isom (isom/iso2/avc1/mp41)
File size : 69.4 MiB
Duration : 7 min 59 s
Overall bit rate mode : Variable
Overall bit rate : 1 213 kb/s

AppleStoreCatalogID : 0
Xtra : WM/Category

Video
ID : 1
Format : AVC
Format/Info : Advanced Video Codec
Format profile : [email protected]
Format settings : 1 Ref Frames
Format settings, CABAC : No
Format settings, RefFrames : 1 frame
Format settings, GOP : M=1, N=12
Codec ID : avc1
Codec ID/Info : Advanced Video Coding
Duration : 7 min 59 s
Bit rate : 1 139 kb/s
Width : 1 440 pixels
Height : 812 pixels
Display aspect ratio : 16:9
Frame rate mode : Constant
Frame rate : 30.000 FPS
Color space : YUV
Chroma subsampling : 4:2:0
Bit depth : 8 bits
Scan type : Progressive
Bits/(Pixel*Frame) : 0.032
Stream size : 65.1 MiB (94%)
Encoded date : UTC 2020-01-12 14:30:02
Tagged date : UTC 2020-01-12 14:30:02
Menus : 3

Audio
ID : 2
Format : AAC
Format/Info : Advanced Audio Codec
Format profile : LC
Codec ID : mp4a-40-2
Duration : 7 min 59 s
Bit rate mode : Variable
Bit rate : 69.4 kb/s
Maximum bit rate : 96.8 kb/s
Channel(s) : 2 channels
Channel positions : Front: L R
Sampling rate : 44.1 kHz
Frame rate : 43.066 FPS (1024 SPF)
Compression mode : Lossy
Stream size : 3.97 MiB (6%)
Encoded date : UTC 2020-01-12 14:30:02
Tagged date : UTC 2020-01-12 14:30:02

Menu
ID : 3
Codec ID : text
Duration : 7 min 59 s
Encoded date : UTC 2020-01-13 07:25:18
Tagged date : UTC 2020-01-13 07:25:18
Menu For : 1
00:00:00.000 : Chapter 1

Download link:

rapidgator_net:
https://rapidgator.net/file/13bef1d3554e86a918b4244b10003f93/sa9go.Ben.Adkins..Show.And.Tell.Funnel.part01.rar.html
https://rapidgator.net/file/ce9c7d175d83eb4b4dc405240d343b2a/sa9go.Ben.Adkins..Show.And.Tell.Funnel.part02.rar.html
https://rapidgator.net/file/e306012315e50f70ca98a3f1f0f71a45/sa9go.Ben.Adkins..Show.And.Tell.Funnel.part03.rar.html
https://rapidgator.net/file/3574248722f0226a930db9bcd15b7f73/sa9go.Ben.Adkins..Show.And.Tell.Funnel.part04.rar.html
https://rapidgator.net/file/c0befde59ad77c37a9250dd76bd7a0f0/sa9go.Ben.Adkins..Show.And.Tell.Funnel.part05.rar.html
https://rapidgator.net/file/76f60dfcb249dc13d8a01bb75d47c322/sa9go.Ben.Adkins..Show.And.Tell.Funnel.part06.rar.html
https://rapidgator.net/file/bec9ad06987f6d9bba91de1576b2c42b/sa9go.Ben.Adkins..Show.And.Tell.Funnel.part07.rar.html
https://rapidgator.net/file/5f2158e254e1361190e9bbf02860e7b2/sa9go.Ben.Adkins..Show.And.Tell.Funnel.part08.rar.html
https://rapidgator.net/file/aa87c71e9a0a25c137ce3ccfc2d6002e/sa9go.Ben.Adkins..Show.And.Tell.Funnel.part09.rar.html

nitroflare_com:
https://nitroflare.com/view/CF19CD78A024731/sa9go.Ben.Adkins..Show.And.Tell.Funnel.part01.rar
https://nitroflare.com/view/848C29AAF6668C0/sa9go.Ben.Adkins..Show.And.Tell.Funnel.part02.rar
https://nitroflare.com/view/FEFDBD5312EC4E9/sa9go.Ben.Adkins..Show.And.Tell.Funnel.part03.rar
https://nitroflare.com/view/BF9551F59A91C71/sa9go.Ben.Adkins..Show.And.Tell.Funnel.part04.rar
https://nitroflare.com/view/4291271757B26A0/sa9go.Ben.Adkins..Show.And.Tell.Funnel.part05.rar
https://nitroflare.com/view/674B8C61BE14AEB/sa9go.Ben.Adkins..Show.And.Tell.Funnel.part06.rar
https://nitroflare.com/view/7CE0CC9FA661B07/sa9go.Ben.Adkins..Show.And.Tell.Funnel.part07.rar
https://nitroflare.com/view/31E945B22AD418D/sa9go.Ben.Adkins..Show.And.Tell.Funnel.part08.rar
https://nitroflare.com/view/3073A6113B080E4/sa9go.Ben.Adkins..Show.And.Tell.Funnel.part09.rar

uploadgig_com:
https://uploadgig.com/file/download/141ec3611F93B791/sa9go.Ben.Adkins..Show.And.Tell.Funnel.part01.rar
https://uploadgig.com/file/download/6f6d68D0b16fbe42/sa9go.Ben.Adkins..Show.And.Tell.Funnel.part02.rar
https://uploadgig.com/file/download/b43b87C6774712Fb/sa9go.Ben.Adkins..Show.And.Tell.Funnel.part03.rar
https://uploadgig.com/file/download/74CaE5815c4faf4e/sa9go.Ben.Adkins..Show.And.Tell.Funnel.part04.rar
https://uploadgig.com/file/download/171e5051a2CBb371/sa9go.Ben.Adkins..Show.And.Tell.Funnel.part05.rar
https://uploadgig.com/file/download/2774FE0c2721c13c/sa9go.Ben.Adkins..Show.And.Tell.Funnel.part06.rar
https://uploadgig.com/file/download/2530494B64c27edd/sa9go.Ben.Adkins..Show.And.Tell.Funnel.part07.rar
https://uploadgig.com/file/download/0f8f754debaC11Eb/sa9go.Ben.Adkins..Show.And.Tell.Funnel.part08.rar
https://uploadgig.com/file/download/de7c0c41e6b5C179/sa9go.Ben.Adkins..Show.And.Tell.Funnel.part09.rar


Links are Interchangeable - No Password - Single Extraction


Rapidgator.net

Site BBcode/HTML Code:
Dear visitor, you went to the site as unregistered user.
We recommend you Sign up or Login to website under your name.
Information
Would you like to leave your comment? Please Login to your account to leave comments. Don't have an account? You can create a free account now.
 
free html hit counter